q3r3
一代宗师

[2021] [大陆] [剧情] [纯净版] [BT下载][热带往事][WEB-MKV/10.96GB][国语音轨][4K-2160P][犯罪,悬疑,文艺,剧情,中国大陆]

-->



◎译  名 热带往事 / 犯罪概率 / Are You Lonesome Tonight?
◎年  代 2021
◎产  地 中国大陆
◎类  别 剧情 / 悬疑 / 犯罪
◎语  言 汉语普通话
◎上映日期 2021-06-12(中国大陆) / 2021-07-11(戛纳电影节)
◎IMDb链接 https://www.imdb.com/title/tt8519380/
◎豆瓣评分 6.5/10 (44587人评价)
◎豆瓣链接 https://movie.douban.com/subject/29984000/
◎片  长 95分钟
◎导  演 温仕培 Shipei Wen (id:1406021)
◎编  剧 赵秉昊 Binghao Zhao (id:1415788)
      王一诺 Yinuo Wang (id:1415789)
      温仕培 Shipei Wen (id:1406021)
      诺亚·道森 Noé Dodson (id:1456208)
◎演  员 彭于晏 Eddie Peng (id:1013782)
      张艾嘉 Sylvia Chang (id:1012646)
      王砚辉 Yanhui Wang (id:1322085)
      章宇 Yu Zhang (id:1322072)
      姜珮瑶 Peiyao Jiang (id:1367185)
      芦鑫 Xin Lu (id:1344715)
      陈永忠 Yongzhong Chen (id:1356496)
      邓飞 Fei Deng (id:1365659)
      王易冰 Yibing Wang (id:1381922)
      宋歌 Ge Song (id:1318488)
      董平 Ping Dong (id:1380636)
      李捷 Jie Li (id:1403835)
      程武 Wu Cheng (id:1406349)
      宁浩 Hao Ning (id:1274265)
      郁笑沣 Xiaofeng Yu (id:1417266)
      虎靖璇 Jingxuan Hu (id:1456209)
      王婧 Jing Wang (id:1444348)
      隋玉刚 Yugang Sui (id:1456218)
      李衡 Hank Lee (id:1444335)
      黄子珈 Zijia Huang (id:1313771)
      安德烈亚斯·塔尔哈默 Andreas Thalhammer (id:1456210)
      韩小苏 Xiaosu Han (id:1456211)
      刘彰 Cedric Cheung-Lau (id:1456212)
      张恒 Heng Zhang (id:1456213)
      朱琳 Lin Zhu (id:1378385)
      魏永 Yong Wei (id:1456215)
      董劼 Jie Dong (id:1456216)
      诺亚·道森 Noé Dodson (id:1456208)
      曹航琛 Hangchen Cao (id:1456217)
      张兆康 Ahong Cheung (id:1366935)
      许贵婷 Guiting Xu (id:1456214)
      鲁伟 Wei Lu (id:1382067)
      张兆康 Ahong Cheung (id:1366935)
      陈子晴 Dos Santos Chi-Ching Chan (id:1446040)
      杜笃之 Du-Che Tu (id:1275159)
      李丹枫 Danfeng Li (id:1401862)
      江宜真 Yi Chen Chiang (id:1416625)

◎标  签 犯罪 / 悬疑 / 文艺 / 剧情 / 中国大陆 / 2021 / 华语 / 人性

◎简  介
  南方炎热的夏日夜晚,年轻的王学明(彭于晏 饰)遭遇了一起意外。梁妈(张艾嘉 饰)的老公 忽然失踪,她寻求陈警官的帮助,却不知自己已成为别人的下一个“目标”。陈警官(王砚辉 饰)负责老梁 失踪案,他发现案情的发展远超自己掌控。这群不知命运已被悄然更改的人,都在试图窥视关于那个夜晚的真相,但这个夏夜的记忆如错乱的拼图,愈加扑朔迷离……

General
Unique ID : 1484729204021912394963468600016587543 (0x11DF2CD2EAA36F64DA56D0E57234B17)
Complete name : [email protected]Q.COM.mkv
Format : Matroska
Format version : Version 4
File size : 11.0 GiB
Duration : 1 h 35 min
Overall bit rate : 16.4 Mb/s
Encoded date : UTC 2021-07-20 07:50:56
Writing application : mkvmerge v58.0.0 ('Supper's Ready') 64-bit
Writing library : libebml v1.4.2 + libmatroska v1.6.4

Video
ID : 1
Format : HEVC
Format/Info : High Efficiency Video Coding
Format profile : [email protected]@Main
Codec ID : V_MPEGH/ISO/HEVC
Duration : 1 h 35 min
Bit rate : 16.0 Mb/s
Width : 3 840 pixels
Height : 1 608 pixels
Display aspect ratio : 2.40:1
Frame rate mode : Constant
Frame rate : 24.000 FPS
Color space : YUV
Chroma subsampling : 4:2:0
Bit depth : 8 bits
Bits/(Pixel*Frame) : 0.108
Stream size : 10.7 GiB (97%)
Default : Yes
Forced : No

Audio #1
ID : 2
Format : E-AC-3
Format/Info : Enhanced AC-3
Commercial name : Dolby Digital Plus
Codec ID : A_EAC3
Duration : 1 h 35 min
Bit rate mode : Constant
Bit rate : 256 kb/s
Channel(s) : 6 channels
Channel layout : L R C LFE Ls Rs
Sampling rate : 48.0 kHz
Frame rate : 31.250 FPS (1536 SPF)
Compression mode : Lossy
Stream size : 175 MiB (2%)
Language : Chinese
Service kind : Complete Main
Default : Yes
Forced : No

Audio #2
ID : 3
Format : AAC LC
Format/Info : Advanced Audio Codec Low Complexity
Codec ID : A_AAC-2
Duration : 1 h 35 min
Bit rate : 192 kb/s
Channel(s) : 2 channels
Channel layout : L R
Sampling rate : 44.1 kHz
Frame rate : 43.066 FPS (1024 SPF)
Compression mode : Lossy
Stream size : 129 MiB (1%)
Language : Chinese
Default : No
Forced : No




1 个附件 售价 大小 下载 时间

热带往事[国语音轨][email protected]DQ.COM 10.96GB.torrent 0 金币 32.11K 34476 次 10天前

#1楼
发帖时间:2021-07-22 16:27:06   |   回复数:13
pwolves
武林盟主
谢谢分享
10天前 #2楼
黑色幽默66
武林高手
谢谢楼主分享资源
10天前 #3楼
yusuble
小有名气
感谢楼主分享哈。
10天前 #4楼
Jasongreat
武林盟主
多谢,多谢分享了
10天前 #5楼
chulps
一代宗师
~ 珍惜+支持 ~
10天前 #6楼
ak147
一代宗师
感谢大大分享
10天前 #7楼
wuya2004
武林盟主
感谢楼主分享!!!
10天前 #8楼
ALLEN820213
隐世仙人♂
感谢楼主分享 !!!
10天前 #9楼
qq262935862
武林高手
感谢楼主分享
10天前 #10楼
kola13
武林盟主
感谢分享
9天前 #11楼
qijc
一派掌门
谢谢了
8天前 #12楼
clayl
武林高手
谢谢分享
7天前 #13楼
sxp709
一派掌门
谢谢楼主分享
5天前 #14楼
游客组