q3r3
一代宗师

[2015] [大陆] [动作] [纯净版] [BT下载][搏击迷城][WEB-MKV/19.87GB][4K-2160P][陈伟霆,电影,动作,五行攻略,华语,励志]

-->



◎译  名 搏击迷城 / 搏击奇缘(港) / 五行攻略 / Lost in Wrestling
◎年  代 2015
◎产  地 中国大陆 / 中国香港
◎类  别 动作
◎语  言 汉语普通话 / 日语 / 粤语
◎上映日期 2015-06-05(中国大陆) / 2015-09-10(中国香港)
◎IMDb链接 https://www.imdb.com/title/tt4838472/
◎豆瓣评分 4.2/10 (1317人评价)
◎豆瓣链接 https://movie.douban.com/subject/25896040/
◎片  长 98分钟
◎导  演 陈丽英 Casey Chan (id:1324865)
◎编  剧 陈丽英 Casey Chan (id:1324865)
      林纪陶 Jason Lam (id:1289291)
◎演  员 陈伟霆 William Chan (id:1275970)
      赵柯 Karina Zhao (id:1314702)
      李菲儿 Fei'er Li (id:1313954)
      渡边奈绪子 Naoko Watanabe (id:1230468)
      斯琴高娃 Gaowa Siqin (id:1274429)
      郑佩佩 Pei-pei Cheng (id:1037023)
      李依馨 Yixin Li (id:1318750)
      刘兆铭 Lau Siu Ming (id:1313719)
      刘丹 Tan Lau (id:1039442)
      郑丽莎 Lisa Cheng (id:1359537)
      李雅东 Yadong Li (id:1444164)
      阚家伟 Ka-Wai Kam (id:1360179)
      崔桐侥 Tongyao Cui (id:1406502)

◎标  签 陈伟霆 / 电影 / 动作 / 五行攻略 / 华语 / 励志 / 香港电影 / 国产电影

◎简  介
  生长于内蒙古大草原的年轻摔跤手——娜仁(赵柯 饰),应邀前往日本表演摔跤。临行前,金月婆婆(斯琴高娃 饰)托她寻找离别十多年的孙子赤那思(陈伟霆 饰)。
摔跤会主持人波士,永远戴着小丑面具,表现狂妄自大。摔跤会中,娜仁结识了被丈夫一度离弃的真和子(渡边奈绪子 饰),以及来自香港,与父亲冲突而离家出走的月月(李菲儿 饰)。波士诱使她们答应组队应战另一支凶猛的女子自由摔跤队。娜仁找到今月婆婆的孙子,他改名成若男,从事足疗按摩。出乎意料,若男拒绝一起回大草原的请求。波士和经纪人小百合利欲熏心,在娜仁事先不知的情形下,临时将比赛改为泥浆摔跤。娜仁忍辱参赛。随后发现波士的真实身份正是温纯的若男,也即五年前被迫退出相扑界的赤那思。愤恨之余,娜仁决心以爱唤醒童年伙伴的良知,找回迷失的自我。
终于,赤那思与娜仁携手回到大草原,重披搏克服,继承蒙古族悠久的摔跤文化……...

General
Complete name : 搏击迷城[email protected].mp4
Format : MPEG-4
Format profile : Base Media
Codec ID : isom (isom/iso2/mp41)
File size : 19.9 GiB
Duration : 1 h 38 min
Overall bit rate : 29.0 Mb/s
Writing application : OurTV Multimedia Platform

Video
ID : 1
Format : HEVC
Format/Info : High Efficiency Video Coding
Format profile : [email protected]@High
Codec ID : hev1
Codec ID/Info : High Efficiency Video Coding
Duration : 1 h 37 min
Bit rate : 28.6 Mb/s
Width : 3 840 pixels
Height : 2 160 pixels
Display aspect ratio : 16:9
Frame rate mode : Constant
Frame rate : 25.000 FPS
Color space : YUV
Chroma subsampling : 4:2:0
Bit depth : 8 bits
Bits/(Pixel*Frame) : 0.138
Stream size : 19.6 GiB (99%)
Color range : Limited
Matrix coefficients : BT.709
Codec configuration box : hvcC

Audio
ID : 2
Format : AC-3
Format/Info : Audio Coding 3
Commercial name : Dolby Digital
Codec ID : ac-3
Duration : 1 h 38 min
Bit rate mode : Constant
Bit rate : 384 kb/s
Channel(s) : 2 channels
Channel layout : L R
Sampling rate : 48.0 kHz
Frame rate : 31.250 FPS (1536 SPF)
Compression mode : Lossy
Stream size : 269 MiB (1%)
Service kind : Complete Main
Default : Yes
Alternate group : 1




1 个附件 售价 大小 下载 时间

搏击迷城[email protected] 19.87GB.torrent 0 金币 54.36K 1022 次 10天前

#1楼
发帖时间:2021-07-22 16:18:45   |   回复数:4
yusuble
小有名气
感谢楼主分享。
10天前 #2楼
ak147
一代宗师
感谢大大分享
10天前 #3楼
ALLEN820213
隐世仙人♂
感谢楼主分享 !!!
10天前 #4楼
kola13
武林盟主
感谢分享
9天前 #5楼
游客组