fg603603
一代宗师

[更 早] [其他] [剧情] [BD-720P] 船续前行 And.the.Ship.Sails.On.1983.720p.BluRay.x264-USURY 9.03GB

-->

帖子完整标题:船续前行 And.the.Ship.Sails.On.1983.720p.BluRay.x264-USURY 9.03GB



◎译  名 船续前行/And the Ship Sails On/与船同行/大海航行/扬帆(台)/航程
◎片  名 E la nave va
◎年  代 1983
◎产  地 意大利,法国
◎类  别 剧情 / 音乐 / 历史
◎语  言 意大利语,德语,塞尔维亚语,俄语
◎上映日期 1983-10-07(意大利)
◎豆瓣评分 8.3/10 from 3276 users
◎豆瓣链接 https://movie.douban.com/subject/1303533/
◎片  长 132分钟
◎导  演 费德里科·费里尼 Federico Fellini
◎编  剧 费德里科·费里尼 Federico Fellini / 托尼诺·格拉 Tonino Guerra
◎主  演 弗雷迪·琼斯 Freddie Jones
      芭芭拉·杰夫德 Barbara Jefford
      彼得·塞利尔 Peter Cellier
      伊莉莎·马邑纳德蒂 Elisa Mainardi
      诺玛·韦斯特 Norma West
      保罗·保罗尼 Paolo Paoloni
      萨拉-简·瓦利 Sarah-Jane Varley
      皮娜·鲍什 Pina Bausch
      Philip Locke Philip Locke
      乔纳森·塞西尔 Jonathan Cecil
      莫里斯·巴里埃 Maurice Barrier
      弗莱德.威廉姆斯 Fred Williams
      Elisabeth Kaza Elisabeth Kaza
      Vittorio Zarfati Vittorio Zarfati
      珍妮特·苏兹曼 Janet Suzman
      让·施莱格尔 Jean Schlegel
      Danika La Loggia Danika La Loggia
      Francesco Scali Francesco Scali
      Franco Angrisano Franco Angrisano
      乌戈·方盖勒季 Ugo Fangareggi
      菲德斯·斯塔尼 Fides Stagni
      菲利波·德·加拉 Filippo De Gara
      塞尔瓦托雷·比拉 Salvatore Billa
      弗朗西斯科·马塞利 Francesco Maselli
      多梅尼科·鄂拿博纳 Franco Ressel

◎标  签 意大利 | 费里尼 | 费德里科·费里尼 | 1983 | 意大利电影 | 剧情 | FedericoFellini | 1980s

◎简  介

  第一次世界大战爆发前夕,一群欧洲的贵族和艺术家为了护送刚逝世知名歌剧女伶的骨灰回到她出生的小岛,展开了一次航行。不料在途中遇到大战爆发,船上涌进一批难民,在封闭的空间中形成了鲜明的阶级对比。费里尼化身为弗莱迪.琼斯饰演的热心记者,为观众介绍船上形形色色的人生百态,其中犹有些锐利的人性观察,暴露了艺术家伪善的面孔。

Video
ID : 1
Format : AVC
Format/Info : Advanced Video Codec
Format profile : [email protected]
Format settings : CABAC / 9 Ref Frames
Format settings, CABAC : Yes
Format settings, Reference frames : 9 frames
Codec ID : V_MPEG4/ISO/AVC
Duration : 2 h 9 min
Bit rate : 9 445 kb/s
Width : 1 280 pixels
Height : 692 pixels
Display aspect ratio : 1.85:1
Frame rate mode : Constant
Frame rate : 23.976 (24000/1001/189150) FPS
Color space : YUV
Chroma subsampling : 4:2:0
Bit depth : 8 bits
Scan type : Progressive
Bits/(Pixel*Frame) : 0.445
Stream size : 8.53 GiB (95%)
Writing library : x264 core 164 r3075 66a5bc1
Encoding settings : cabac=1 / ref=9 / deblock=1:-3:-3 / analyse=0x3:0x133 / me=umh / subme=10 / psy=1 / psy_rd=1.00:0.15 / mixed_ref=1 / me_range=24 / chroma_me=1 / trellis=2 / 8x8dct=1 / cqm=0 / deadzone=21,11 / fast_pskip=1 / chroma_qp_offset=-3 / threads=18 / lookahead_threads=3 / sliced_threads=0 / nr=0 / decimate=1 / interlaced=0 / bluray_compat=0 / constrained_intra=0 / bframes=8 / b_pyramid=2 / b_adapt=2 / b_bias=0 / direct=3 / weightb=1 / open_gop=0 / weightp=2 / keyint=250 / keyint_min=23 / scenecut=40 / intra_refresh=0 / rc_lookahead=60 / rc=crf / mbtree=1 / crf=19.0 / qcomp=0.60 / qpmin=0 / qpmax=69 / qpstep=4 / ip_ratio=1.40 / aq=3:0.50
Language : English
Default : Yes
Forced : No

Audio
ID : 2
Format : FLAC
Format/Info : Free Lossless Audio Codec
Codec ID : A_FLAC
Duration : 2 h 9 min
Bit rate mode : Variable
Bit rate : 539 kb/s
Channel(s) : 1 channel
Channel layout : C
Sampling rate : 48.0 kHz
Frame rate : 11.719 FPS (4096 SPF)
Bit depth : 24 bits
Compression mode : Lossless
Stream size : 498 MiB (5%)
Writing library : libFLAC 1.2.1 (UTC 2007-09-17)
Language : Italian
Default : Yes
Forced : No

Text #1
ID : 3
Format : UTF-8
Codec ID : S_TEXT/UTF8
Codec ID/Info : UTF-8 Plain Text
Duration : 2 h 4 min
Bit rate : 51 b/s
Count of elements : 1284
Stream size : 46.8 KiB (0%)
Title : English
Language : English
Default : Yes
Forced : Yes

Text #2
ID : 4
Format : PGS
Muxing mode : zlib
Codec ID : S_HDMV/PGS
Codec ID/Info : Picture based subtitle format used on BDs/HD-DVDs
Duration : 2 h 4 min
Bit rate : 7 277 b/s
Count of elements : 2568
Stream size : 6.46 MiB (0%)
Title : English
Language : English
Default : No
Forced : No

Menu
00:00:00.000 : en:00:00:00.000
00:01:30.465 : en:00:01:30.465
00:07:31.117 : en:00:07:31.117
00:11:43.995 : en:00:11:43.995
00:14:58.481 : en:00:14:58.481
00:18:01.580 : en:00:18:01.580
00:19:49.188 : en:00:19:49.188
00:21:10.811 : en:00:21:10.811
00:22:13.415 : en:00:22:13.415
00:24:39.603 : en:00:24:39.603
00:27:50.419 : en:00:27:50.419
00:30:30.037 : en:00:30:30.037
00:33:07.360 : en:00:33:07.360
00:35:34.716 : en:00:35:34.716
00:39:03.800 : en:00:39:03.800
00:43:23.935 : en:00:43:23.935
00:44:24.871 : en:00:44:24.871
00:49:09.905 : en:00:49:09.905
00:51:11.318 : en:00:51:11.318
00:56:52.284 : en:00:56:52.284
01:00:30.252 : en:01:00:30.252
01:03:56.291 : en:01:03:56.291
01:07:25.959 : en:01:07:25.959
01:09:47.433 : en:01:09:47.433
01:12:11.285 : en:01:12:11.285
01:15:57.303 : en:01:15:57.303
01:19:55.916 : en:01:19:55.916
01:23:37.638 : en:01:23:37.638
01:27:10.642 : en:01:27:10.642
01:29:35.370 : en:01:29:35.370
01:31:35.990 : en:01:31:35.990
01:32:43.057 : en:01:32:43.057
01:39:36.304 : en:01:39:36.304
01:46:54.867 : en:01:46:54.867
01:53:27.050 : en:01:53:27.050
01:58:14.004 : en:01:58:14.004
02:03:37.994 : en:02:03:37.994
02:05:23.015 : en:02:05:23.015





1 个附件 售价 大小 下载 时间

And.the.Ship.Sails.On.1983.720p.BluRay.x264-USURY.torrent 0 金币 23.32K 588 次 13天前

#1楼
发帖时间:2021-10-13 20:55:29   |   回复数:1
liyouchai
隐世仙人♂
谢谢楼主分享资源
12天前 #2楼
游客组