fg603603
一代宗师

[更 早] [其他] [剧情] [BD-1080P] 浪荡儿 I.Vitelloni.1953.REMASTERED.1080p.BluRay.x264-USURY 14.74GB

-->

帖子完整标题:浪荡儿 I.Vitelloni.1953.REMASTERED.1080p.BluRay.x264-USURY 14.74GB



◎译  名 浪荡儿/The Young and the Passionate/Vitelloni/小牛(台)/流浪汉/维蒂洛尼/青春群像
◎片  名 I vitelloni
◎年  代 1953
◎产  地 意大利,法国
◎类  别 剧情 / 喜剧
◎语  言 意大利语
◎上映日期 1953-08-26(威尼斯电影节) / 1953-09-17(意大利)
◎豆瓣评分 8.4/10 from 7881 users
◎豆瓣链接 https://movie.douban.com/subject/1300779/
◎片  长 109分钟
◎导  演 费德里科·费里尼 Federico Fellini
◎编  剧 费德里科·费里尼 Federico Fellini / 恩尼奥·弗拉亚诺 Ennio Flaiano / 图里奥·皮内利 Tullio Pinelli
◎主  演 弗朗科·英特朗吉 Franco Interlenghi
      阿尔贝托·索尔迪 Alberto Sordi
      佛朗哥·法布里齐 Franco Fabrizi
      莱奥波多·特里耶斯泰 Leopoldo Trieste
      里卡尔多·费里尼 Riccardo Fellini
      莉奥诺拉·罗芙 Leonora Ruffo
      让·布罗沙尔 Jean Brochard
      Carlo Romano Carlo Romano
      Enrico Viarisio Enrico Viarisio
      保拉·布鲁布尼 Paola Borboni
      莉妲·巴洛瓦 Lída Baarová
      Vira Silenti Vira Silenti
      Achille Majeroni Achille Majeroni
      Silvio Bagolini Silvio Bagolini
      恩佐·安德罗尼科 Enzo Andronico
      里卡多·库乔拉 Riccardo Cucciolla
      莉莉亚·兰迪 Lilia Landi
      Gigetta Morano Gigetta Morano
      黎诺·图弗洛 Lino Toffolo
      克洛德·法雷尔 Claude Farell

◎标  签 意大利 | 费里尼 | 1953 | 1950s | 黑白 | 剧情 | 青春 | 喜剧

◎简  介

  影片的主人公是年近30岁的5位年轻人,他们终日游手好闲,热衷于恶作剧并沉溺于梦幻般不切实际的计划里。其中最年长的浮士德让最年少的摩拉德的妹妹桑德拉怀了孕,基于责任心及周围人的力劝而结了婚。浮士德在一家古董店工作,但因为恶习不改企图勾引店主的老婆而被解雇。一天,桑德拉得知浮士德带着一名舞娘到一家廉价的旅馆过夜,于是第二天她带着孩子离家出走;狼狈的浮士德第一次感到桑德拉的重要性。于是和她的兄弟四人拼命寻找桑德拉的下落,终于找到桑德拉的浮士德一边遭到父亲的痛斥;一边恳求桑德拉的原谅。见到二人重修旧好的摩拉德在次日清晨不辞而别,踏上了自己的旅程。

◎获奖情况

  第30届奥斯卡金像奖 ?(1958)
  最佳原创剧本(提名) 图里奥·皮内利?/?恩尼奥·弗拉亚诺?/?费德里科·费里尼
  
  第14届威尼斯电影节 ?(1953)
  主竞赛单元金狮奖(提名) 费德里科·费里尼
  银狮奖最佳影片 费德里科·费里尼

Video
ID : 1
Format : AVC
Format/Info : Advanced Video Codec
Format profile : [email protected]
Format settings : CABAC / 5 Ref Frames
Format settings, CABAC : Yes
Format settings, Reference frames : 5 frames
Codec ID : V_MPEG4/ISO/AVC
Duration : 1 h 48 min
Bit rate : 18.8 Mb/s
Width : 1 420 pixels
Height : 1 080 pixels
Display aspect ratio : 4:3
Frame rate mode : Constant
Frame rate : 23.976 (24000/1001/189150) FPS
Color space : YUV
Chroma subsampling : 4:2:0
Bit depth : 8 bits
Scan type : Progressive
Bits/(Pixel*Frame) : 0.511
Stream size : 14.3 GiB (97%)
Writing library : x264 core 164 r3075 66a5bc1
Encoding settings : cabac=1 / ref=5 / deblock=1:-3:-3 / analyse=0x3:0x133 / me=umh / subme=10 / psy=1 / psy_rd=1.00:0.15 / mixed_ref=1 / me_range=24 / chroma_me=1 / trellis=2 / 8x8dct=1 / cqm=0 / deadzone=21,11 / fast_pskip=1 / chroma_qp_offset=-3 / threads=18 / lookahead_threads=3 / sliced_threads=0 / nr=0 / decimate=1 / interlaced=0 / bluray_compat=0 / constrained_intra=0 / bframes=8 / b_pyramid=2 / b_adapt=2 / b_bias=0 / direct=3 / weightb=1 / open_gop=0 / weightp=2 / keyint=250 / keyint_min=23 / scenecut=40 / intra_refresh=0 / rc_lookahead=60 / rc=crf / mbtree=1 / crf=17.5 / qcomp=0.60 / qpmin=0 / qpmax=69 / qpstep=4 / ip_ratio=1.40 / aq=3:0.50
Language : English
Default : Yes
Forced : No

Audio
ID : 2
Format : FLAC
Format/Info : Free Lossless Audio Codec
Codec ID : A_FLAC
Duration : 1 h 48 min
Bit rate mode : Variable
Bit rate : 574 kb/s
Channel(s) : 1 channel
Channel layout : C
Sampling rate : 48.0 kHz
Frame rate : 11.719 FPS (4096 SPF)
Bit depth : 24 bits
Compression mode : Lossless
Stream size : 447 MiB (3%)
Writing library : libFLAC 1.2.1 (UTC 2007-09-17)
Language : Italian
Default : Yes
Forced : No

Text #1
ID : 3
Format : UTF-8
Codec ID : S_TEXT/UTF8
Codec ID/Info : UTF-8 Plain Text
Duration : 1 h 46 min
Bit rate : 60 b/s
Count of elements : 1301
Stream size : 46.8 KiB (0%)
Title : English
Language : English
Default : Yes
Forced : Yes

Text #2
ID : 4
Format : PGS
Muxing mode : zlib
Codec ID : S_HDMV/PGS
Codec ID/Info : Picture based subtitle format used on BDs/HD-DVDs
Duration : 1 h 46 min
Bit rate : 8 636 b/s
Count of elements : 2602
Stream size : 6.57 MiB (0%)
Title : English
Language : English
Default : No
Forced : No

Menu
00:00:00.000 : en:00:00:00.000
00:02:17.804 : en:00:02:17.804
00:08:33.221 : en:00:08:33.221
00:13:46.200 : en:00:13:46.200
00:17:24.252 : en:00:17:24.252
00:25:35.993 : en:00:25:35.993
00:29:04.910 : en:00:29:04.910
00:33:21.583 : en:00:33:21.583
00:36:01.493 : en:00:36:01.493
00:42:46.105 : en:00:42:46.105
00:52:31.065 : en:00:52:31.065
00:58:32.592 : en:00:58:32.592
01:02:17.776 : en:01:02:17.776
01:05:54.450 : en:01:05:54.450
01:13:17.935 : en:01:13:17.935
01:14:41.852 : en:01:14:41.852
01:17:48.163 : en:01:17:48.163
01:19:43.612 : en:01:19:43.612
01:28:10.619 : en:01:28:10.619
01:31:07.587 : en:01:31:07.587
01:34:45.722 : en:01:34:45.722
01:42:48.120 : en:01:42:48.120
01:46:26.964 : en:01:46:26.964





1 个附件 售价 大小 下载 时间

I.Vitelloni.1953.REMASTERED.1080p.BluRay.x264-USURY.torrent 0 金币 19.27K 679 次 13天前

#1楼
发帖时间:2021-10-13 20:39:31   |   回复数:0
游客组