fg603603
一代宗师

[更 早] [欧美] [剧情] [BD-1080P] 彼得·艾伯特逊 Peter.Ibbetson.1935.1080p.BluRay.x264-USURY 11.85GB

-->

帖子完整标题:彼得·艾伯特逊 Peter.Ibbetson.1935.1080p.BluRay.x264-USURY 11.85GB



◎译  名 彼得·艾伯特逊
◎片  名 Peter Ibbetson
◎年  代 1935
◎产  地 美国
◎类  别 剧情 / 爱情 / 奇幻
◎语  言 英语,法语
◎上映日期 1935-11-07
◎豆瓣评分 7.1/10 from 45 users
◎豆瓣链接 https://movie.douban.com/subject/2376525/
◎片  长 88 分钟
◎导  演 亨利·哈撒韦 Henry Hathaway
◎编  剧 文森特·劳伦斯 Vincent Lawrence / 康丝坦斯·柯莉儿 Constance Collier / 弗雷德·金尼曼 Fred Zinnemann / 乔治·杜·莫里耶 George L. Du Maurier / 埃德温·贾斯特斯·迈耶 Edwin Justus Mayer / 约翰·米汉 John Meehan / 瓦尔德马·扬 Waldemar Young
◎主  演 加里·库珀 Gary Cooper
      安·哈丁 Ann Harding
      约翰·哈利戴 John Halliday
      Clive Morgan Clive Morgan
      Thomas Monk Thomas Monk
      Gilbert Emery Gilbert Emery
      西里尔·麦克拉格伦 Cyril McLaglen
      多丽丝·劳埃德 Doris Lloyd
      Marguerite Namara Marguerite Namara
      迪基·穆尔 Dickie Moore
      玛塞勒·科尔代 Marcelle Corday
      Gerald Rogers Gerald Rogers
      Christian Rub Christian Rub
      科林·塔普利 Colin Tapley
      Virginia Weidler Virginia Weidler
      艾达·卢皮诺 Ida Lupino
      唐纳德·米克 Donald Meek
      列昂尼德·金斯基 Leonid Kinskey
      斯坦利·安德鲁斯 Stanley Andrews
      Jack Adair Jack Adair
      Robert Adair Robert Adair
      Ambrose Barker Ambrose Barker
      哈利·考丁 Harry Cording
      Theresa Maxwell Conover Theresa Maxwell Conover
      Elsa Buchanan Elsa Buchanan
      Adrienne D'Ambricourt Adrienne D'Ambricourt
      Blanche Craig Blanche Craig
      道格拉斯·敦布里勒 Douglass Dumbrille
      赫伯特·埃文斯 Herbert Evans
      费迪南德·戈特沙尔克 Ferdinand Gottschalk
      波蒂尔·罗辛 Bodil Rosing

◎标  签 美国 | 美国电影 | 1930s | 超现实 | GaryCooper | 奇幻 | HenryHathaway | 梦境

◎简  介

  Architect Peter Ibbetson is hired by the Duke of Towers to design a building for him. Ibbetson discovers that the Duchess of Towers, Mary, is his now-grown childhood sweetheart. Their love revives, but Peter is sentenced to life in prison for an accidental killing. Mary comes to him in dreams and they are able to live out their romance in a dream world.

◎获奖情况

  第8届奥斯卡金像奖 ?(1936)
  最佳配乐(提名) 厄尔文·塔尔博特

Video
ID : 1
Format : AVC
Format/Info : Advanced Video Codec
Format profile : [email protected]
Format settings : CABAC / 5 Ref Frames
Format settings, CABAC : Yes
Format settings, Reference frames : 5 frames
Codec ID : V_MPEG4/ISO/AVC
Duration : 1 h 25 min
Bit rate : 19.5 Mb/s
Width : 1 478 pixels
Height : 1 080 pixels
Display aspect ratio : 4:3
Frame rate mode : Constant
Frame rate : 23.976 (24000/1001/189150) FPS
Color space : YUV
Chroma subsampling : 4:2:0
Bit depth : 8 bits
Scan type : Progressive
Bits/(Pixel*Frame) : 0.511
Stream size : 11.6 GiB (98%)
Writing library : x264 core 164 r3065 ae03d92
Encoding settings : cabac=1 / ref=5 / deblock=1:-3:-3 / analyse=0x3:0x133 / me=umh / subme=10 / psy=1 / psy_rd=1.00:0.15 / mixed_ref=1 / me_range=24 / chroma_me=1 / trellis=2 / 8x8dct=1 / cqm=0 / deadzone=21,11 / fast_pskip=1 / chroma_qp_offset=-3 / threads=18 / lookahead_threads=3 / sliced_threads=0 / nr=0 / decimate=1 / interlaced=0 / bluray_compat=0 / constrained_intra=0 / bframes=8 / b_pyramid=2 / b_adapt=2 / b_bias=0 / direct=3 / weightb=1 / open_gop=0 / weightp=2 / keyint=250 / keyint_min=23 / scenecut=40 / intra_refresh=0 / rc_lookahead=60 / rc=crf / mbtree=1 / crf=17.0 / qcomp=0.60 / qpmin=0 / qpmax=69 / qpstep=4 / ip_ratio=1.40 / aq=3:0.50
Language : English
Default : Yes
Forced : No

Audio #1
ID : 2
Format : FLAC
Format/Info : Free Lossless Audio Codec
Codec ID : A_FLAC
Duration : 1 h 25 min
Bit rate mode : Variable
Bit rate : 307 kb/s
Channel(s) : 2 channels
Channel layout : L R
Sampling rate : 48.0 kHz
Frame rate : 11.719 FPS (4096 SPF)
Bit depth : 16 bits
Compression mode : Lossless
Stream size : 186 MiB (2%)
Writing library : libFLAC 1.2.1 (UTC 2007-09-17)
Language : English
Default : Yes
Forced : No

Audio #2
ID : 3
Format : AAC LC
Format/Info : Advanced Audio Codec Low Complexity
Codec ID : A_AAC-2
Duration : 1 h 25 min
Bit rate : 85.9 kb/s
Channel(s) : 2 channels
Channel layout : L R
Sampling rate : 48.0 kHz
Frame rate : 46.875 FPS (1024 SPF)
Compression mode : Lossy
Delay relative to video : 9 ms
Stream size : 52.3 MiB (0%)
Title : English Commentary by David Del Valle
Language : English
Default : No
Forced : No

Text #1
ID : 4
Format : UTF-8
Codec ID : S_TEXT/UTF8
Codec ID/Info : UTF-8 Plain Text
Duration : 1 h 22 min
Bit rate : 56 b/s
Count of elements : 1186
Stream size : 33.9 KiB (0%)
Title : English
Language : English
Default : No
Forced : No

Text #2
ID : 5
Format : PGS
Muxing mode : zlib
Codec ID : S_HDMV/PGS
Codec ID/Info : Picture based subtitle format used on BDs/HD-DVDs
Duration : 1 h 22 min
Bit rate : 15.9 kb/s
Count of elements : 2050
Stream size : 9.37 MiB (0%)
Title : English
Language : English
Default : No
Forced : No

Menu
00:00:00.000 : en:00:00:00.000
00:10:36.840 : en:00:10:36.840
00:16:10.590 : en:00:16:10.590
00:28:57.565 : en:00:28:57.565
00:39:34.493 : en:00:39:34.493
00:56:08.528 : en:00:56:08.528
01:05:31.590 : en:01:05:31.590
01:16:57.943 : en:01:16:57.943





1 个附件 售价 大小 下载 时间

Peter.Ibbetson.1935.1080p.BluRay.x264-USURY.torrent 0 金币 15.62K 231 次 25天前

#1楼
发帖时间:2021-09-28 09:03:09   |   回复数:0
游客组