fg603603
一代宗师

[更 早] [韩国] [剧情] [BD-1080P] 太极旗飘扬 Tae.Guk.Gi.The.Brotherhood.of.War.2004.REMASTERED.1080p.BluRay.x264-USURY

-->

帖子完整标题:太极旗飘扬 Tae.Guk.Gi.The.Brotherhood.of.War.2004.REMASTERED.1080p.BluRay.x264-USURY 15.67GB



◎译  名 太极旗飘扬/Brotherhood/Tae Guk Gi: The Brotherhood of War/兄弟/太极旗-生死兄弟(台)/太极旗飘扬:生死有情(港)/战火兄弟情
◎片  名 ??? ????
◎年  代 2004
◎产  地 韩国
◎类  别 剧情 / 动作 / 战争
◎语  言 韩语
◎上映日期 2004-02-06(韩国)
◎豆瓣评分 8.3/10 from 76660 users
◎豆瓣链接 https://movie.douban.com/subject/1304972/
◎片  长 148分钟
◎导  演 姜帝圭 Je-gyu Kang
◎编  剧 姜帝圭 Je-gyu Kang / 韩知勋 Ji-hoon Han / 金相敦 Sang-don Kim
◎主  演 张东健 Dong-gun Jang
      元斌 Bin Won
      李恩珠 Eun-ju Lee
      孔炯轸 Hyeong-jin Kong
      崔岷植 Min-sik Choi
      全仁杰 In-geol Jeon
      朴东彬 Dong-bin Park
      朴振国 Park Jin-gook
      权泰元 Tae-won Kwon
      韩在民 Jae-min Han
      郑镇 Jung Jin
      金海坤 Hae-gon Kim
      金秀路 Su-ro Kim
      裴长秀 Jang-su Bae
      郑基燮 Gi-seop Jeong
      全宰亨 Jae-hyeong Jeon
      赵胤熙 Yun-hie Jo
      D.C.道格拉斯 D.C. Douglas
      郑斗洪 Doo-hong Jung
      亚当·爱泼斯坦 Adam Epstein
      安吉江 Kil-Kang Ahn
      Jae-hyeong Jeon Jae-hyeong Jeon
      朱雅凛 Ah-reum Joo

◎标  签 战争 | 韩国 | 韩国电影 | 张东健 | 人性 | 亲情 | 元彬 | 太极旗飘扬

◎简  介

  李镇泰(张东健饰)是生活在汉城的一个修鞋匠,一家人的生计就从修补鞋子的费用维持。虽然物质并不富裕,这却是一个十分温馨完整的家庭。妻子李英顺(李恩珠饰)和母亲开一间面馆,平日还要照顾下面的弟妹,弟弟李镇锡(元彬饰)是家中所有的希望,如今正在高中读书,考上大学是他的梦想,更是哥哥镇泰的寄托所在。
  
  然而随着1950年朝鲜战争突然爆发,平静的生活很快被打乱。战火蔓延汉城,镇泰决定带着家人到大邱去生活,躲避战乱。但在中途,他们却被强行征入军队,押上了开往洛东江前线的列车。从此一家人四分五裂。而在战场上的镇泰只剩下一个愿望:不顾一切用生命保护弟弟,当听说只要获得国家勋章就可以让弟弟免役时,他便疯子般冲在战斗最前沿。然而残酷的战场加上弄人的命运,他们的生命轨迹发生了无可避免的改变。

Video
ID : 1
Format : AVC
Format/Info : Advanced Video Codec
Format profile : [email protected]
Format settings : CABAC / 5 Ref Frames
Format settings, CABAC : Yes
Format settings, Reference frames : 5 frames
Codec ID : V_MPEG4/ISO/AVC
Duration : 2 h 27 min
Bit rate : 10.9 Mb/s
Width : 1 920 pixels
Height : 816 pixels
Display aspect ratio : 2.35:1
Frame rate mode : Constant
Frame rate : 24.000 FPS
Color space : YUV
Chroma subsampling : 4:2:0
Bit depth : 8 bits
Scan type : Progressive
Bits/(Pixel*Frame) : 0.290
Stream size : 11.3 GiB (72%)
Writing library : x264 core 164 r3065 ae03d92
Encoding settings : cabac=1 / ref=5 / deblock=1:-3:-3 / analyse=0x3:0x133 / me=umh / subme=10 / psy=1 / psy_rd=1.00:0.15 / mixed_ref=1 / me_range=24 / chroma_me=1 / trellis=2 / 8x8dct=1 / cqm=0 / deadzone=21,11 / fast_pskip=1 / chroma_qp_offset=-3 / threads=18 / lookahead_threads=3 / sliced_threads=0 / nr=0 / decimate=1 / interlaced=0 / bluray_compat=0 / constrained_intra=0 / bframes=8 / b_pyramid=2 / b_adapt=2 / b_bias=0 / direct=3 / weightb=1 / open_gop=0 / weightp=2 / keyint=250 / keyint_min=24 / scenecut=40 / intra_refresh=0 / rc_lookahead=60 / rc=crf / mbtree=1 / crf=17.0 / qcomp=0.60 / qpmin=0 / qpmax=69 / qpstep=4 / ip_ratio=1.40 / aq=3:0.60
Language : English
Default : Yes
Forced : No
Color range : Limited
Matrix coefficients : BT.709

Audio
ID : 2
Format : DTS XLL
Format/Info : Digital Theater Systems
Commercial name : DTS-HD Master Audio
Codec ID : A_DTS
Duration : 2 h 27 min
Bit rate mode : Variable
Bit rate : 4 253 kb/s
Channel(s) : 6 channels
Channel layout : C L R Ls Rs LFE
Sampling rate : 48.0 kHz
Frame rate : 93.750 FPS (512 SPF)
Bit depth : 24 bits
Compression mode : Lossless
Stream size : 4.39 GiB (28%)
Language : Korean
Default : Yes
Forced : No

Text #1
ID : 3
Format : UTF-8
Codec ID : S_TEXT/UTF8
Codec ID/Info : UTF-8 Plain Text
Duration : 2 h 24 min
Bit rate : 41 b/s
Count of elements : 1511
Stream size : 43.3 KiB (0%)
Title : English
Language : English
Default : Yes
Forced : Yes

Text #2
ID : 4
Format : PGS
Muxing mode : zlib
Codec ID : S_HDMV/PGS
Codec ID/Info : Picture based subtitle format used on BDs/HD-DVDs
Duration : 2 h 24 min
Bit rate : 8 180 b/s
Count of elements : 2979
Stream size : 8.43 MiB (0%)
Title : English
Language : English
Default : No
Forced : No

Text #3
ID : 5
Format : PGS
Muxing mode : zlib
Codec ID : S_HDMV/PGS
Codec ID/Info : Picture based subtitle format used on BDs/HD-DVDs
Duration : 2 h 21 min
Bit rate : 9 944 b/s
Count of elements : 3044
Stream size : 10.1 MiB (0%)
Title : Korean
Language : Korean
Default : No
Forced : No

Menu
00:00:00.000 : en:00:00:00.000
00:06:19.708 : en:00:06:19.708
00:18:01.750 : en:00:18:01.750
00:25:46.917 : en:00:25:46.917
00:34:02.083 : en:00:34:02.083
00:45:39.500 : en:00:45:39.500
00:58:16.375 : en:00:58:16.375
01:04:43.583 : en:01:04:43.583
01:15:07.667 : en:01:15:07.667
01:22:49.792 : en:01:22:49.792
01:28:45.542 : en:01:28:45.542
01:41:33.458 : en:01:41:33.458
01:50:06.417 : en:01:50:06.417
01:55:46.000 : en:01:55:46.000
02:05:35.542 : en:02:05:35.542
02:20:30.208 : en:02:20:30.208





1 个附件 售价 大小 下载 时间

Tae.Guk.Gi.The.Brotherhood.of.War.2004.REMASTERED.1080p.BluRay.x264-USURY.torrent 0 金币 20.50K 1589 次 25天前

#1楼
发帖时间:2021-09-28 08:59:10   |   回复数:0
游客组