travismk
一代宗师

[更 早] [其他] [恐怖] [BD-1080P] 恶灵/恶魔 Demonic.2021.1080p.BluRay.x264-JustWatch 16.33GB

-->

帖子完整标题:恶灵/恶魔 Demonic.2021.1080p.BluRay.x264-JustWatch 16.33GB



◎译  名 恶灵/恶魔/驱魔禁区(台)
◎片  名 Demonic
◎年  代 2021
◎产  地 加拿大
◎类  别 恐怖
◎语  言 英语
◎上映日期 2021-07-29(俄罗斯) / 2021-08-20(美国)
◎豆瓣评分 4.7/10 from 901 users
◎豆瓣链接 https://movie.douban.com/subject/35280918/
◎片  长 104分钟
◎导  演 尼尔·布洛姆坎普 Neill Blomkamp
◎编  剧 尼尔·布洛姆坎普 Neill Blomkamp
◎主  演 卡莉·波普 Carly Pope
      克里斯·威廉·马丁 Chris William Martin
      迈克尔·J·罗杰斯 Michael J Rogers
      娜塔莉·博尔特 Nathalie Boltt
      特瑞·陈 Terry Chen
      坎迪斯·麦克卢尔 Kandyse McClure
      Derek Versteeg Derek Versteeg

◎标  签 恐怖 | 惊悚 | 科幻 | 2021 | 加拿大 | 美国 | 电影 | 悬疑

◎简  介

  剧情讲述年轻女子卡莉突然收到狱中母亲陷入昏迷的通知,面对两人过往的矛盾,卡莉依然决定前往探访,没想到却意外接触到一股不知名的超自然力量,唤醒怀抱着恶意的邪灵,揭露母女数十年来感情裂痕的恐怖根源。

Video
ID : 1
Format : AVC
Format/Info : Advanced Video Codec
Format profile : [email protected]
Format settings : CABAC / 4 Ref Frames
Format settings, CABAC : Yes
Format settings, Reference frames : 4 frames
Codec ID : V_MPEG4/ISO/AVC
Duration : 1 h 44 min
Bit rate : 18.6 Mb/s
Width : 1 920 pixels
Height : 960 pixels
Display aspect ratio : 2.000
Frame rate mode : Constant
Frame rate : 23.976 (24000/1001/189150) FPS
Color space : YUV
Chroma subsampling : 4:2:0
Bit depth : 8 bits
Scan type : Progressive
Bits/(Pixel*Frame) : 0.421
Stream size : 13.6 GiB (83%)
Writing library : x264 core 164 r3065 ae03d92
Encoding settings : cabac=1 / ref=4 / deblock=1:-3:-3 / analyse=0x3:0x133 / me=umh / subme=9 / psy=1 / psy_rd=1.00:0.00 / mixed_ref=1 / me_range=16 / chroma_me=1 / trellis=2 / 8x8dct=1 / cqm=0 / deadzone=21,11 / fast_pskip=0 / chroma_qp_offset=-2 / threads=30 / lookahead_threads=2 / sliced_threads=0 / nr=0 / decimate=1 / interlaced=0 / bluray_compat=0 / constrained_intra=0 / bframes=3 / b_pyramid=2 / b_adapt=2 / b_bias=0 / direct=3 / weightb=1 / open_gop=0 / weightp=2 / keyint=250 / keyint_min=23 / scenecut=40 / intra_refresh=0 / rc_lookahead=60 / rc=crf / mbtree=1 / crf=18.0 / qcomp=0.60 / qpmin=0 / qpmax=69 / qpstep=4 / ip_ratio=1.40 / aq=1:1.00
Language : English
Default : Yes
Forced : No

Audio
ID : 2
Format : DTS XLL
Format/Info : Digital Theater Systems
Commercial name : DTS-HD Master Audio
Codec ID : A_DTS
Duration : 1 h 44 min
Bit rate mode : Variable
Bit rate : 3 750 kb/s
Channel(s) : 6 channels
Channel layout : C L R Ls Rs LFE
Sampling rate : 48.0 kHz
Frame rate : 93.750 FPS (512 SPF)
Bit depth : 24 bits
Compression mode : Lossless
Stream size : 2.74 GiB (17%)
Language : English
Default : Yes
Forced : No

Text #1
ID : 3
Format : PGS
Muxing mode : zlib
Codec ID : S_HDMV/PGS
Codec ID/Info : Picture based subtitle format used on BDs/HD-DVDs
Duration : 1 h 35 min
Bit rate : 214 b/s
Count of elements : 20
Stream size : 149 KiB (0%)
Language : French
Default : No
Forced : No

Text #2
ID : 4
Format : PGS
Muxing mode : zlib
Codec ID : S_HDMV/PGS
Codec ID/Info : Picture based subtitle format used on BDs/HD-DVDs
Duration : 1 h 43 min
Bit rate : 17.7 kb/s
Count of elements : 1850
Stream size : 13.1 MiB (0%)
Language : French
Default : No
Forced : No

Menu
00:00:00.000 : en:Chapter 01
00:08:11.491 : en:Chapter 02
00:17:20.289 : en:Chapter 03
00:25:40.497 : en:Chapter 04
00:31:41.650 : en:Chapter 05
00:43:10.171 : en:Chapter 06
00:50:49.630 : en:Chapter 07
01:00:14.903 : en:Chapter 08
01:12:10.785 : en:Chapter 09
01:21:21.877 : en:Chapter 10
01:31:06.920 : en:Chapter 11
01:39:56.282 : en:Chapter 12





1 个附件 售价 大小 下载 时间

Demonic.2021.1080p.BluRay.x264-JustWatch.torrent 0 金币 21.14K 602 次 1月前

#1楼
发帖时间:2021-09-22 19:50:42   |   回复数:1
liyouchai
隐世仙人♂
谢谢楼主分享资源
1月前 #2楼
游客组