fg603603
武林盟主

[更 早] [其他] [动作] [BD-720P] 终极大帝/最终兵器 The.Ultimate.Weapon.1998.720p.BluRay.x264-GUACAMOLE 3.87GB

-->

帖子完整标题:终极大帝/最终兵器 The.Ultimate.Weapon.1998.720p.BluRay.x264-GUACAMOLE 3.87GB



◎译  名 终极大帝/最终兵器
◎片  名 The Ultimate Weapon
◎年  代 1997
◎产  地 加拿大
◎类  别 动作
◎语  言 英语
◎上映日期 1997
◎豆瓣评分 /10 from 0 users
◎豆瓣链接 https://movie.douban.com/subject/2248706/
◎片  长 USA: 110 分钟
◎导  演 强·卡萨 Jon Cassar
◎主  演 浩克·霍根 Hulk Hogan
      卡尔·马洛特 Carl Marotte
      辛西娅·普雷斯顿 Cynthia Preston
      丹尼尔·皮隆 Daniel Pilon
      帕特里克·克尔顿 Patrick Kerton
      艾德·莱斯利 Ed Leslie
      瓦拉斯塔·瓦拉纳 Vlasta Vrana

◎标  签 动作 | 美国 | 反恐 | 间谍 | 经典老片 | 冷战 | 英国 | 苏联

◎简  介

  班是一个职业雇佣兵,最后一次的任务受雇于杜拉蒙,将与以前伙伴的儿子狄恩一起合作,摧毁一个重装备的营地,获取美国军方的武器,班和狄恩在出任务时,发现陷入爱尔兰共和国和恐怖分子的阴谋,于是他们摧毁武器,击落恐怖分子的直升机,把恐怖分子留在山上动弹不得,共和军的资助人狄兰,也就是恐怖分子头目要杜拉蒙放弃班和狄恩,但杜拉蒙出于军人重意气的本色不肯,于是……

Video
ID : 1
Format : AVC
Format/Info : Advanced Video Codec
Format profile : [email protected]
Format settings : CABAC / 8 Ref Frames
Format settings, CABAC : Yes
Format settings, Reference frames : 8 frames
Codec ID : V_MPEG4/ISO/AVC
Duration : 1 h 34 min
Bit rate : 5 135 kb/s
Width : 1 280 pixels
Height : 694 pixels
Display aspect ratio : 1.85:1
Frame rate mode : Constant
Frame rate : 23.976 (24000/1001/189150) FPS
Color space : YUV
Chroma subsampling : 4:2:0
Bit depth : 8 bits
Scan type : Progressive
Bits/(Pixel*Frame) : 0.241
Stream size : 3.40 GiB (88%)
Writing library : x264 core 164 r3065 ae03d92
Encoding settings : cabac=1 / ref=8 / deblock=1:-3:-3 / analyse=0x3:0x133 / me=umh / subme=9 / psy=1 / psy_rd=1.00:0.00 / mixed_ref=1 / me_range=16 / chroma_me=1 / trellis=2 / 8x8dct=1 / cqm=0 / deadzone=21,11 / fast_pskip=0 / chroma_qp_offset=-2 / threads=22 / lookahead_threads=1 / sliced_threads=0 / nr=0 / decimate=1 / interlaced=0 / bluray_compat=0 / constrained_intra=0 / bframes=3 / b_pyramid=2 / b_adapt=2 / b_bias=0 / direct=3 / weightb=1 / open_gop=0 / weightp=2 / keyint=250 / keyint_min=23 / scenecut=40 / intra_refresh=0 / rc_lookahead=60 / rc=crf / mbtree=1 / crf=18.0 / qcomp=0.60 / qpmin=0 / qpmax=69 / qpstep=4 / ip_ratio=1.40 / aq=3:0.60
Default : Yes
Forced : No
Color range : Limited
Matrix coefficients : BT.709

Audio
ID : 2
Format : FLAC
Format/Info : Free Lossless Audio Codec
Codec ID : A_FLAC
Duration : 1 h 34 min
Bit rate mode : Variable
Bit rate : 687 kb/s
Channel(s) : 2 channels
Channel layout : L R
Sampling rate : 48.0 kHz
Frame rate : 11.719 FPS (4096 SPF)
Bit depth : 16 bits
Compression mode : Lossless
Stream size : 466 MiB (12%)
Writing library : libFLAC 1.2.1 (UTC 2007-09-17)
Language : English
Default : Yes
Forced : No

Text #1
ID : 3
Format : PGS
Muxing mode : zlib
Codec ID : S_HDMV/PGS
Codec ID/Info : Picture based subtitle format used on BDs/HD-DVDs
Duration : 1 h 30 min
Bit rate : 18.2 kb/s
Count of elements : 1564
Stream size : 11.7 MiB (0%)
Language : English
Default : No
Forced : No

Text #2
ID : 4
Format : PGS
Muxing mode : zlib
Codec ID : S_HDMV/PGS
Codec ID/Info : Picture based subtitle format used on BDs/HD-DVDs
Duration : 1 h 30 min
Bit rate : 21.9 kb/s
Count of elements : 1574
Stream size : 14.2 MiB (0%)
Language : German
Default : No
Forced : No

Text #3
ID : 5
Format : PGS
Muxing mode : zlib
Codec ID : S_HDMV/PGS
Codec ID/Info : Picture based subtitle format used on BDs/HD-DVDs
Duration : 4 s 379 ms
Bit rate : 25.9 kb/s
Count of elements : 4
Stream size : 13.8 KiB (0%)
Language : German
Default : No
Forced : No

Menu
00:00:00.000 : en:00:00:00.000
00:08:00.480 : en:00:08:00.480
00:15:51.951 : en:00:15:51.951
00:24:10.449 : en:00:24:10.449
00:30:53.852 : en:00:30:53.852
00:40:32.430 : en:00:40:32.430
00:46:09.767 : en:00:46:09.767
00:54:13.250 : en:00:54:13.250
01:02:50.767 : en:01:02:50.767
01:10:53.249 : en:01:10:53.249
01:18:12.688 : en:01:18:12.688
01:26:49.204 : en:01:26:49.204





1 个附件 售价 大小 下载 时间

The.Ultimate.Weapon.1998.720p.BluRay.x264-GUACAMOLE.torrent 0 金币 20.06K 651 次 13天前

#1楼
发帖时间:2021-09-15 13:58:26   |   回复数:0
游客组