squallzhao
武林盟主

[2020] [欧美] [惊悚] [WEB-1080P] 惊聚万圣节/坏糖果 Bad.Candy.2020.1080p.WEBRip.DD5.1.x264-NOGRP 5.09GB

-->

帖子完整标题:惊聚万圣节/坏糖果 Bad.Candy.2020.1080p.WEBRip.DD5.1.x264-NOGRP 5.09GB



◎译  名 惊聚万圣节/坏糖果
◎片  名 Bad Candy
◎年  代 2020
◎产  地 美国
◎类  别 惊悚 / 恐怖
◎语  言 英语
◎上映日期 2020-07-06(美国)
◎豆瓣评分 /10 from 0 users
◎豆瓣链接 https://movie.douban.com/subject/35198199/
◎片  长 100分钟
◎主  演 Haley Leary Haley Leary
      Natalia Nova Natalia Nova

◎标  签 美国

◎简  介

  Bad Candy follows local Halloween stories of both myth and lessons learned in the community of New Salem. With its annual Psychotronic FM Halloween show, re-enactment radio DJs Chilly Billy and Paul weave the tales of the supernatural of years gone by. In this small town it's a grimy ending for most, but will a few good souls survive?

Video
ID : 1
Format : AVC
Format/Info : Advanced Video Codec
Format profile : [email protected]
Format settings : CABAC / 5 Ref Frames
Format settings, CABAC : Yes
Format settings, Reference frames : 5 frames
Codec ID : V_MPEG4/ISO/AVC
Duration : 1 h 43 min
Bit rate : 6 635 kb/s
Width : 1 912 pixels
Height : 808 pixels
Display aspect ratio : 2.35:1
Frame rate mode : Constant
Frame rate : 23.976 (24000/1001/189150) FPS
Color space : YUV
Chroma subsampling : 4:2:0
Bit depth : 8 bits
Scan type : Progressive
Bits/(Pixel*Frame) : 0.179
Stream size : 4.81 GiB (95%)
Language : English
Default : Yes
Forced : No
Color range : Limited
Color primaries : BT.709
Transfer characteristics : BT.709
Matrix coefficients : BT.709

Audio
ID : 2
Format : AC-3
Format/Info : Audio Coding 3
Commercial name : Dolby Digital
Codec ID : A_AC3
Duration : 1 h 43 min
Bit rate mode : Constant
Bit rate : 384 kb/s
Channel(s) : 6 channels
Channel layout : L R C LFE Ls Rs
Sampling rate : 48.0 kHz
Frame rate : 31.250 FPS (1536 SPF)
Compression mode : Lossy
Stream size : 285 MiB (5%)
Title : English
Language : English
Service kind : Complete Main
Default : Yes
Forced : No

Text
ID : 3
Format : UTF-8
Codec ID : S_TEXT/UTF8
Codec ID/Info : UTF-8 Plain Text
Duration : 1 h 41 min
Bit rate : 38 b/s
Count of elements : 1098
Stream size : 28.3 KiB (0%)
Language : English
Default : Yes
Forced : No





1 个附件 售价 大小 下载 时间

Bad.Candy.2020.1080p.WEBRip.DD5.1.x264-NOGRP.torrent 0 金币 13.36K 364 次 13天前

#1楼
发帖时间:2021-09-15 13:21:29   |   回复数:0
游客组