squallzhao
武林盟主

[更 早] [其他] [动作] [WEB-1080P] 幽灵之国的囚徒/鬼域的囚徒 Prisoners.of.the.Ghostland.2021.1080p.WEBRip.DD5.1.x264-NOGRP 5.02

-->

帖子完整标题:幽灵之国的囚徒/鬼域的囚徒 Prisoners.of.the.Ghostland.2021.1080p.WEBRip.DD5.1.x264-NOGRP 5.02GB



◎译  名 幽灵之国的囚徒/鬼域的囚徒
◎片  名 Prisoners Of The Ghostland
◎年  代 2021
◎产  地 美国,日本
◎类  别 动作 / 惊悚 / 恐怖
◎语  言 英语
◎上映日期 2021-01-31(圣丹斯电影节) / 2021-09-17(美国网络) / 2021-10-08(日本)
◎豆瓣评分 /10 from 0 users
◎豆瓣链接 https://movie.douban.com/subject/30219722/
◎片  长 100分钟
◎导  演 园子温 Shion Sono
◎主  演 尼古拉斯·凯奇 Nicolas Cage
      索菲亚·波多拉 Sofia Boutella
      尼克·卡萨维蒂 Nick Cassavetes
      比尔·莫斯利 Bill Moseley
      坂口拓 Tak Sakaguchi
      小川辉晃 Teruaki Ogawa
      马修·乔齐克 Matthew Chozick
      艾德·斯克林 Ed Skrein
      海 YOUNG DAIS
      栗原类 Louis Kurihara
      周传兮 Chuanxi Zhou
      萝拉 Rola
      特蕾莎·鲁伊斯 Teresa Ruiz
      渡边哲 Tetsu Watanabe
      中屋柚香 Nakaya Yuzuka
      藤丸千 Sen Fujimaru

◎标  签 园子温 | 尼古拉斯·凯奇 | 奇幻 | 惊悚 | 日本 | 恐怖 | 动作 | 2021

◎简  介

  故事讲述一名被绑架的女孩([波多拉饰])消失在了黑暗超自然宇宙中,臭名昭著的罪犯英雄(凯奇饰)被派去解救她。他们必须打破束缚他们的邪恶诅咒才能逃避统治鬼域的神秘幽灵。

Video
ID : 1
Format : AVC
Format/Info : Advanced Video Codec
Format profile : [email protected]
Format settings : CABAC / 5 Ref Frames
Format settings, CABAC : Yes
Format settings, Reference frames : 5 frames
Codec ID : V_MPEG4/ISO/AVC
Duration : 1 h 42 min
Bit rate : 6 609 kb/s
Width : 1 920 pixels
Height : 798 pixels
Display aspect ratio : 2.40:1
Frame rate mode : Constant
Frame rate : 23.976 (23976/1000/189150) FPS
Color space : YUV
Chroma subsampling : 4:2:0
Bit depth : 8 bits
Scan type : Progressive
Bits/(Pixel*Frame) : 0.180
Stream size : 4.75 GiB (94%)
Default : Yes
Forced : No
Color range : Limited
Color primaries : BT.709
Transfer characteristics : BT.709
Matrix coefficients : BT.709

Audio
ID : 2
Format : AC-3
Format/Info : Audio Coding 3
Commercial name : Dolby Digital
Codec ID : A_AC3
Duration : 1 h 42 min
Bit rate mode : Constant
Bit rate : 384 kb/s
Channel(s) : 6 channels
Channel layout : L R C LFE Ls Rs
Sampling rate : 48.0 kHz
Frame rate : 31.250 FPS (1536 SPF)
Compression mode : Lossy
Stream size : 282 MiB (5%)
Title : English
Language : English
Service kind : Complete Main
Default : No
Forced : No

Text #1
ID : 3
Format : UTF-8
Codec ID : S_TEXT/UTF8
Codec ID/Info : UTF-8 Plain Text
Duration : 1 h 32 min
Bit rate : 4 b/s
Count of elements : 120
Stream size : 3.22 KiB (0%)
Title : FORCED
Language : English
Default : Yes
Forced : Yes

Text #2
ID : 4
Format : UTF-8
Codec ID : S_TEXT/UTF8
Codec ID/Info : UTF-8 Plain Text
Duration : 1 h 35 min
Bit rate : 27 b/s
Count of elements : 832
Stream size : 19.1 KiB (0%)
Language : English
Default : No
Forced : No





1 个附件 售价 大小 下载 时间

Prisoners.of.the.Ghostland.2021.1080p.WEBRip.DD5.1.x264-NOGRP.torrent 0 金币 13.19K 2835 次 13天前

#1楼
发帖时间:2021-09-15 13:13:40   |   回复数:1
liyouchai
隐世仙人♂
谢谢楼主分享
12天前 #2楼
游客组