squallzhao
武林盟主

[2020] [欧美] [喜剧] [WEB-1080P] 梦马/神马逐梦 追风逐梦 Dream.Horse.2020.1080p.WEBRip.DD5.1.x264-CM 4.63GB

-->

帖子完整标题:梦马/神马逐梦 追风逐梦 Dream.Horse.2020.1080p.WEBRip.DD5.1.x264-CM 4.63GB



◎译  名 梦马/神马逐梦 追风逐梦
◎片  名 Dream Horse
◎年  代 2020
◎产  地 英国
◎类  别 喜剧
◎语  言 英语
◎上映日期 2020-01-24(圣丹斯电影节) / 2021-05-21(美国)
◎豆瓣评分 /10 from 0 users
◎豆瓣链接 https://movie.douban.com/subject/30489389/
◎片  长 102分钟
◎导  演 尤洛斯·林 Euros Lyn
◎编  剧 尼尔·麦凯 Neil McKay
◎主  演 托妮·科莱特 Toni Collette
      戴米恩·路易斯 Damian Lewis
      乔安娜·佩吉 Joanna Page
      尼古拉斯·法瑞尔 Nicholas Farrell
      彼得·戴维森 Peter Davison
      简·菲利普斯 Sian Phillips
      欧文·蒂尔 Owen Teale
      凯瑟琳·詹金斯 Katherine Jenkins
      卡尔·约翰逊 Karl Johnson
      戴伦·伊万斯 Darren Evans
      琳达·巴伦 Lynda Baron
      拉杰·保罗 Raj Paul
      迪·波特切尔 Di Botcher
      安东尼·奥唐纳 Anthony O'Donnell
      阿什克·阿赫塔尔 Asheq Akhtar
      亚历克斯·乔丹 Alex Jordan
      马诺伊·阿南德 Manoj Anand
      尼克·欧文福特 Nick Owenford
      阿图尔·夏尔马 Atul Sharma
      乔·惠特利 Jo Wheatley

◎标  签 英国 | 赛马 | 2020 | 传记 | 电影 | 我的2021院线片 | 喜剧

◎简  介

  托妮·柯莱特(《遗传厄运》《天鹅绒圆锯》)和戴米恩·刘易斯(《亿万》《兄弟连》)将主演剧情片《梦想之马》,尤洛斯·林(《黑镜》《神探夏洛克》)执导,Neil McKay(《我为钱狂》《呼啸山庄》)编写剧本。
  
  基于真事,柯莱特饰演简,她在自己的威尔士小村庄里创立了一个赛马组织,并试图养一匹赛马冠军。刘易斯饰演一个当地会计,加入了组织。

Video
ID : 1
Format : AVC
Format/Info : Advanced Video Codec
Format profile : [email protected]
Format settings : CABAC / 2 Ref Frames
Format settings, CABAC : Yes
Format settings, Reference frames : 2 frames
Codec ID : V_MPEG4/ISO/AVC
Duration : 1 h 53 min
Bit rate : 5 465 kb/s
Width : 1 920 pixels
Height : 1 080 pixels
Display aspect ratio : 16:9
Frame rate mode : Constant
Frame rate : 23.976 (24000/1001/189150) FPS
Color space : YUV
Chroma subsampling : 4:2:0
Bit depth : 8 bits
Scan type : Progressive
Bits/(Pixel*Frame) : 0.110
Stream size : 4.32 GiB (93%)
Writing library : x264 core 155 r2901 7d0ff22
Language : English
Default : Yes
Forced : No
Color range : Limited
Color primaries : BT.709
Transfer characteristics : BT.709
Matrix coefficients : BT.709

Audio
ID : 2
Format : AC-3
Format/Info : Audio Coding 3
Commercial name : Dolby Digital
Codec ID : A_AC3
Duration : 1 h 53 min
Bit rate mode : Constant
Bit rate : 384 kb/s
Channel(s) : 6 channels
Channel layout : L R C LFE Ls Rs
Sampling rate : 48.0 kHz
Frame rate : 31.250 FPS (1536 SPF)
Compression mode : Lossy
Stream size : 311 MiB (7%)
Language : English
Service kind : Complete Main
Default : Yes
Forced : No

Text
ID : 3
Format : UTF-8
Codec ID : S_TEXT/UTF8
Codec ID/Info : UTF-8 Plain Text
Duration : 1 h 47 min
Bit rate : 64 b/s
Count of elements : 1399
Stream size : 50.4 KiB (0%)
Language : English
Default : Yes
Forced : No





1 个附件 售价 大小 下载 时间

Dream.Horse.2020.1080p.WEBRip.DD5.1.x264-CM.torrent 0 金币 46.89K 448 次 12天前

#1楼
发帖时间:2021-06-11 13:56:25   |   回复数:1
ken.sting
一派掌门
感谢楼主分享精彩资源!
12天前 #2楼
游客组