q3r3
武林盟主

[2018] [欧美] [其他] [BD-720P] 了不起的巴斯特 The.Great.Buster.2018.720p.BluRay.x264-USURY 5.32GB

-->

帖子完整标题:了不起的巴斯特 The.Great.Buster.2018.720p.BluRay.x264-USURY 5.32GB



◎译  名 了不起的巴斯特/The Great Buster/真喜剧之王:基顿(港)
◎片  名 The Great Buster: A Celebration
◎年  代 2018
◎产  地 美国
◎类  别 纪录片 / 传记
◎语  言 英语
◎上映日期 2018-08-30(威尼斯电影节) / 2018-10-05(美国)
◎豆瓣评分 8.2/10 from 1155 users
◎豆瓣链接 https://movie.douban.com/subject/30295871/
◎片  长 102分钟
◎导  演 彼得·博格丹诺维奇 Peter Bogdanovich
◎编  剧 彼得·博格丹诺维奇 Peter Bogdanovich
◎主  演 巴斯特·基顿 Buster Keaton
      彼得·博格丹诺维奇 Peter Bogdanovich
      梅尔·布鲁克斯 Mel Brooks
      迪克·卡维特 Dick Cavett
      保罗·杜利 Paul Dooley
      比尔·哈德尔 Bill Hader
      沃纳·赫尔佐格 Werner Herzog
      比尔·欧文 Bill Irwin
      詹姆斯·凯伦 James Karen
      约翰尼·诺克斯维尔 Johnny Knoxville
      尼克·克罗尔 Nick Kroll
      理查德·刘易斯 Richard Lewis
      诺曼·劳埃德 Norman Lloyd
      莱纳德·马尔廷 Leonard Maltin
      卡尔·雷纳 Carl Reiner
      斯碧尔·谢波德 Cybill Shepherd
      弗伦奇·斯图尔特 French Stewart
      昆汀·塔伦蒂诺 Quentin Tarantino
      迪克·范·戴克 Dick Van Dyke
      乔·沃茨 Jon Watts
      奥逊·威尔斯 Orson Welles

◎标  签 纪录片 | 美国 | 传记 | 2018 | 喜剧 | 电影史 | 默片 | 纪实

◎简  介

  提到默片年代的喜剧泰斗,很多人记得差利,其实冷面笑匠巴士达基顿同属殿堂级高手,对后来者一样影响深远。奥逊威尔斯直言钟爱《将军号火车》 (1926)。《七个机会》(1925)被一大群新娘狂追不舍,还有连环闪避巨石的画面,至今仍令人叹为观止。以《最后一场电影》(1971)名留影史的波丹诺维奇,回顾基顿一生起落,从他小时候跟父母表演杂耍说起,再细数其辉煌岁月十部经典杰作,重温那些历久不衰的惊险搞笑绝技。

Video
ID : 1
Format : AVC
Format/Info : Advanced Video Codec
Format profile : [email protected]
Format settings : CABAC / 9 Ref Frames
Format settings, CABAC : Yes
Format settings, Reference frames : 9 frames
Codec ID : V_MPEG4/ISO/AVC
Duration : 1 h 41 min
Bit rate : 6 888 kb/s
Width : 1 280 pixels
Height : 720 pixels
Display aspect ratio : 16:9
Frame rate mode : Constant
Frame rate : 23.976 (24000/1001/189150) FPS
Color space : YUV
Chroma subsampling : 4:2:0
Bit depth : 8 bits
Scan type : Progressive
Bits/(Pixel*Frame) : 0.312
Stream size : 4.86 GiB (91%)
Writing library : x264 core 163 r3059 b684ebe
Encoding settings : cabac=1 / ref=9 / deblock=1:-3:-3 / analyse=0x3:0x133 / me=umh / subme=10 / psy=1 / psy_rd=1.00:0.15 / mixed_ref=1 / me_range=24 / chroma_me=1 / trellis=2 / 8x8dct=1 / cqm=0 / deadzone=21,11 / fast_pskip=1 / chroma_qp_offset=-3 / threads=18 / lookahead_threads=3 / sliced_threads=0 / nr=0 / decimate=1 / interlaced=0 / bluray_compat=0 / constrained_intra=0 / bframes=8 / b_pyramid=2 / b_adapt=2 / b_bias=0 / direct=3 / weightb=1 / open_gop=0 / weightp=2 / keyint=250 / keyint_min=23 / scenecut=40 / intra_refresh=0 / rc_lookahead=60 / rc=crf / mbtree=1 / crf=17.0 / qcomp=0.60 / qpmin=0 / qpmax=69 / qpstep=4 / ip_ratio=1.40 / aq=3:0.60
Language : English
Default : Yes
Forced : No
Color range : Limited
Matrix coefficients : BT.709

Audio
ID : 2
Format : AC-3
Format/Info : Audio Coding 3
Commercial name : Dolby Digital
Codec ID : A_AC3
Duration : 1 h 41 min
Bit rate mode : Constant
Bit rate : 640 kb/s
Channel(s) : 6 channels
Channel layout : L R C LFE Ls Rs
Sampling rate : 48.0 kHz
Frame rate : 31.250 FPS (1536 SPF)
Compression mode : Lossy
Stream size : 463 MiB (8%)
Language : English
Service kind : Complete Main
Default : Yes
Forced : No

Text #1
ID : 3
Format : UTF-8
Codec ID : S_TEXT/UTF8
Codec ID/Info : UTF-8 Plain Text
Duration : 1 h 37 min
Bit rate : 71 b/s
Count of elements : 1326
Stream size : 50.5 KiB (0%)
Title : English
Language : English
Default : No
Forced : No

Text #2
ID : 4
Format : UTF-8
Codec ID : S_TEXT/UTF8
Codec ID/Info : UTF-8 Plain Text
Duration : 1 h 37 min
Bit rate : 76 b/s
Count of elements : 1564
Stream size : 55.0 KiB (0%)
Title : English SDH
Language : English
Default : No
Forced : No

Text #3
ID : 5
Format : PGS
Muxing mode : zlib
Codec ID : S_HDMV/PGS
Codec ID/Info : Picture based subtitle format used on BDs/HD-DVDs
Duration : 1 h 37 min
Bit rate : 7 961 b/s
Count of elements : 1924
Stream size : 5.56 MiB (0%)
Title : English SDH
Language : English
Default : No
Forced : No

Menu
00:00:00.000 : en:00:00:00.000
00:06:01.945 : en:00:06:01.945
00:10:25.959 : en:00:10:25.959
00:18:29.900 : en:00:18:29.900
00:26:17.326 : en:00:26:17.326
00:32:56.474 : en:00:32:56.474
00:39:10.557 : en:00:39:10.557
00:43:44.247 : en:00:43:44.247
00:53:50.644 : en:00:53:50.644
01:01:30.979 : en:01:01:30.979
01:05:06.945 : en:01:05:06.945
01:23:39.181 : en:01:23:39.181
01:27:56.813 : en:01:27:56.813
01:32:17.490 : en:01:32:17.490
01:36:09.305 : en:01:36:09.305





1 个附件 售价 大小 下载 时间

The.Great.Buster.2018.720p.BluRay.x264-USURY.torrent 0 金币 27.34K 329 次 12天前

#1楼
发帖时间:2021-06-11 11:52:35   |   回复数:0
游客组