ms_k
一派掌门

奇袭60阵地 Beneath.Hill.60.2010.BluRay.720p.x264.AC3-WOFEI

-->


◎译  名 60号高地之下
◎片  名 Beneath Hill 60
◎年  代 2010
◎国  家 澳大利亚
◎类  别 剧情/历史/战争
◎语  言 英语
◎字  幕 中英字幕/中文字幕/英中字幕/英文字幕
◎IMDB评分 7.6/10  214 votes
◎IMDB链接 http://www.imdb.com/title/tt1418646
◎文件格式 X264 + AC3
◎视频尺寸 1280 x 720
◎文件大小 1CD 2.05G
◎片  长 118 minutes
◎导  演 杰瑞米·西姆斯 Jeremy Sims
◎主  演 杰奎琳·麦根斯 Jacqueline McKenzie  ....Emma Waddell
      杰拉德·勒帕斯基 Gerald Lepkowski  ....William Waddell
      阿登·杨 Aden Young  ....Major Brady North
      布伦丹·考威尔 Brendan Cowell  ....Captain Oliver Woodward
      盖东·格兰特利 Gyton Grantley  ....Norman Morris
      哈里森·吉尔伯特森 Harrison Gilbertson  ....Frank Tiffin
      Isabella Heathcote  ....Marjorie Waddell
      Steve Le Marquand  ....Sergeant Bill Fraser
      Anthony Hayes  ....Captain William McBride
      Leon Ford  ....Lieutenant Robert Clayton
      John Stanton  ....General Lambert
      瓦维克·杨 Warwick Young  ....Percy Marsden
      Bob Franklin  ....Potsy
      Dennis Kreusler  ....Australian Soldier on Parapet
      Tom Green  ....Hutchings
      David Ritchie  ....Kommandeur Fusslein
      Samuel Ross Forbes Wright  ....Core Soldier
      Matthew Wollaston  ....British Soldier Leading Wounded
      Mark Coles Smith  ....Billy 'Streaky' Bacon
      Alex Thompson  ....Walter Sneddon
      Marcus Costello  ....Ernst Wagner
      Martin Thomas  ....Ginger' Mick ODonnell
      Oliver Leimbach  ....Screaming Soldier
      Anthony Ring  ....Stoat
      Kenneth Spiteri  ....Karl Babek
      Alan Dukes  ....Jim Sneddon
      Andy Bramble  ....Wilf Piggott
      Chris Haywood  ....Colonel Wilson Rutledge
      Juliana Dodd  ....Isabel Waddell
      Fletcher Illidge  ....Colin Waddell
      Morgan Illidge  ....Gordon Waddell
      Nikki Fort  ....Mrs Thorn
      Jessica Robertson  ....Dotty
      Alice Cavanagh  ....Agnes
      Mahala Wallace  ....Eunice
      Tim Sawatzki  ....Lambert's Aid
      Kristopher Bos  ....Core soldier #4
      Timothy John Sawatzki  ....Lambert's Aid
      Ian Sparke  ....Padre

◎简  介 

奥利弗伍德沃德的非凡真实故事。这是1916年,德沃德泪别他的年轻女友,从军前往西部前线,其间还要穿越德国阵地。德沃德和他的团队从事秘密隧道工事,铺设炸药。他们的努力将改变战争的进程。1917年6月17日,奥利弗伍德沃德和他的战友们用血泪换来的那场19分钟的爆炸造就了世界上有史以来最大的一次人工爆破,爆炸长度相当从伦敦延绵至都柏林……

◎幕后制作

      荣获澳洲电影大奖12项提名的《奇袭60阵地》堪称澳洲电影近年来难得的战争佳作。影片巧妙地采用了两条主线穿插的叙事手法,让它有别于同类型影片。在战争主线之余,与之平行的另一条叙事线索抓取了主人公隧道专家伍德沃在家乡与其心爱的姑娘经历的点点滴滴。他们的爱情并没有惊心动魄的桥段,但只因二人鲜明可爱的个性照亮全片。伍德盾心仪的姑娘小他十岁,更是挚友的妹妹,一个古灵精怪却洒脱坚毅的女子,可能也正是因为这种性格特质让他们的爱情段落显得格外纯洁暖人。
I:\rmvb资源\[高清MKV收藏www.hdbird.com]\飞鸟娱乐[bbs.hdbird.com].奇袭60阵地.720p.中英字幕\奇袭60阵地 Beneath.Hill.60.2010.BluRay.720p.x264.AC3-WOFEI.mkv
   General
      Complete name : I:\rmvb资源\[高清MKV收藏www.hdbird.com]\飞鸟娱乐[bbs.hdbird.com].奇袭60阵地.720p.中英字幕\奇袭60阵地 Beneath.Hill.60.2010.BluRay.720p.x264.AC3-WOFEI.mkv
      Format : Matroska
      File size : 2.73 GiB
      Duration : 2h 2mn
      Overall bit rate : 3 203 Kbps
      Encoded date : UTC 2011-03-07 13:53:01
      Writing application : mkvmerge v3.4.0 ('Rapunzel') 编译于 May 15 2010 09:38:20
      Writing library : libebml v0.8.0 + libmatroska v0.9.0
   Video #1
      ID : 1
      Format : AVC
      Format/Info : Advanced Video Codec
      Format profile : [email protected]
      Format settings, CABAC : Yes
      Format settings, ReFrames : 5 frames
      Muxing mode : Container [email protected]
      Codec ID : V_MPEG4/ISO/AVC
      Duration : 2h 2mn
      Bit rate : 2 691 Kbps
      Nominal bit rate : 2 753 Kbps
      Width : 1 280 pixels
      Height : 720 pixels
      Display aspect ratio : 16:9
      Frame rate : 23.976 fps
      Resolution : 8 bits
      Colorimetry : 4:2:0
      Scan type : Progressive
      Bits/(Pixel*Frame) : 0.122
      Stream size : 2.29 GiB (84%)
      Writing library : x264 core 112 r1867 22bfd31
      Encoding settings : cabac=1 / ref=5 / deblock=1:0:0 / analyse=0x3:0x113 / me=hex / subme=7 / psy=1 / psy_rd=1.00:0.00 / mixed_ref=1 / me_range=16 / chroma_me=1 / trellis=2 / 8x8dct=1 / cqm=0 / deadzone=21,11 / fast_pskip=1 / chroma_qp_offset=-2 / threads=6 / sliced_threads=0 / nr=0 / decimate=1 / interlaced=0 / constrained_intra=0 / bframes=3 / b_pyramid=2 / b_adapt=1 / b_bias=0 / direct=1 / weightb=1 / open_gop=0 / weightp=2 / keyint=250 / keyint_min=23 / scenecut=40 / intra_refresh=0 / rc_lookahead=40 / rc=2pass / mbtree=1 / bitrate=2753 / ratetol=1.0 / qcomp=0.60 / qpmin=0 / qpmax=51 / qpstep=4 / cplxblur=20.0 / qblur=0.5 / ip_ratio=1.40 / aq=1:1.00
      Language : English
   Audio #2
      ID : 2
      Format : AC-3
      Format/Info : Audio Coding 3
      Codec ID : A_AC3
      Duration : 2h 2mn
      Bit rate mode : Constant
      Bit rate : 448 Kbps
      Channel(s) : 6 channels
      Channel positions : Front: L C R, Surround: L R, LFE
      Sampling rate : 48.0 KHz
      Stream size : 392 MiB (14%)
   Text #3
      ID : 3
      Format : SSA
      Codec ID : S_TEXT/SSA
      Codec ID/Info : Sub Station Alpha
      Title : 中英
   Text #4
      ID : 4
      Format : SSA
      Codec ID : S_TEXT/SSA
      Codec ID/Info : Sub Station Alpha
      Title : 英中
   Text #5
      ID : 5
      Format : UTF-8
      Codec ID : S_TEXT/UTF8
      Codec ID/Info : UTF-8 Plain Text
      Title : 中文
   Text #6
      ID : 6
      Format : UTF-8
      Codec ID : S_TEXT/UTF8
      Codec ID/Info : UTF-8 Plain Text
      Title : 英文



1 个附件 售价 大小 下载 时间

奇袭60阵地.720p.中英字幕.torrent 0 金币 29.08K 5305 次 2011-3-8

#1楼
发帖时间:2011-03-08 07:25:38   |   回复数:1
zhangqing855
江湖小虾
惊悚灾难片,不知道剧情如何?
2012-6-17 #2楼
游客组