ms_k
一派掌门

[2010] [欧美] [动作] [BD-720P] 追击巨怪 Trolljegeren 2010.BluRay.720p.x264.AC3-WOFEI

-->


◎译    名  追击巨怪
◎片    名  Trolljegeren
◎出品年代  2010 年
◎国  家  挪威
◎类  别  动作/冒险/剧情/恐怖/惊悚
◎对白语言  挪威语
◎官方网站  http://www.trollhunterfilm.com/
◎IMDB 链接 http://www.imdb.com/title/tt1740707/
◎IMDB 评分 7.9/10 (1,009 votes)
◎文件格式 X264 + AC3
◎视频尺寸 1280 x 720
◎文件大小 1CD 2.05G
◎影片长度  100 Mins
◎导  演  安德烈·欧弗兰多 Andre Ovredal
◎主  演  Otto Jespersen ….Trolljegeren
                 Hans Morten Hansen ….Finn
                 Tomas Alf Larsen ….Kalle
                 Johanna M?rck ….Johanna

◎内容简介  
     
     影片讲述的是一群挪威大学生用手持摄像机搜寻巨怪(Troll)的足迹,目的就是为了捕捉到这传说中怪物真实存在的影像。这种远古怪物存在的真相一直被挪威ZF所掩盖(就像美国ZF对外星人和51区的做法一样),在驱车追逐巨怪的过程中,他们更惊人的发现:原来那些跨越在挪威山脉上的高压电线,真实的用途竟是为了阻挡巨怪进入人类的活动区域……

◎精彩影评

      这支片段其实来自挪威的独立制作伪纪录片《追击巨怪》(The Troll Hunter),影片讲述的是一群挪威大学生用手持摄像机搜寻巨怪(Troll)的足迹,目的就是为了捕捉到这传说中怪物真实存在的影像。这种远古怪物存在的真相一直被挪威ZF所掩盖(就像美国ZF对外星人和51区的做法一样),在驱车追逐巨怪的过程中,他们更惊人的发现:原来那些跨越在挪威山脉上的高压电线,真实的用途竟是为了阻挡巨怪进入人类的活动区域……

  伪纪录电影似乎总是能带给我们惊喜,它们往往能触及一些疯狂的课题,那种DV式的粗糙而真实的影像更是带给我们极大的观影乐趣。自从1999年《女巫布莱尔》成功运用这种风格以来,伪纪录片便受到恐怖和超自然题材的亲睐,《科洛弗档案》、《灵动:鬼影实录》以及今年夏天的《最后一次驱魔》等等都证明了伪纪录片持久的魔力以及低廉制作成本所能带来的高回报。

I:\rmvb资源\[高清MKV收藏www.hdbird.com]\飞鸟娱乐[bbs.hdbird.com].追击巨怪.720p.中文字幕\追击巨怪 Trolljegeren 2010.BluRay.720p.x264.AC3-WOFEI.mkv
   General
      Complete name : I:\rmvb资源\[高清MKV收藏www.hdbird.com]\飞鸟娱乐[bbs.hdbird.com].追击巨怪.720p.中文字幕\追击巨怪 Trolljegeren 2010.BluRay.720p.x264.AC3-WOFEI.mkv
      Format : Matroska
      File size : 2.05 GiB
      Duration : 1h 39mn
      Overall bit rate : 2 961 Kbps
      Encoded date : UTC 2011-03-07 08:40:13
      Writing application : mkvmerge v3.4.0 ('Rapunzel') 编译于 May 15 2010 09:38:20
      Writing library : libebml v0.8.0 + libmatroska v0.9.0
   Video #1
      ID : 1
      Format : AVC
      Format/Info : Advanced Video Codec
      Format profile : [email protected]
      Format settings, CABAC : Yes
      Format settings, ReFrames : 5 frames
      Muxing mode : Container [email protected]
      Codec ID : V_MPEG4/ISO/AVC
      Duration : 1h 38mn
      Bit rate : 2 454 Kbps
      Nominal bit rate : 2 514 Kbps
      Width : 1 280 pixels
      Height : 720 pixels
      Display aspect ratio : 16:9
      Frame rate : 23.976 fps
      Resolution : 8 bits
      Colorimetry : 4:2:0
      Scan type : Progressive
      Bits/(Pixel*Frame) : 0.111
      Stream size : 1.70 GiB (83%)
      Writing library : x264 core 112 r1867 22bfd31
      Encoding settings : cabac=1 / ref=5 / deblock=1:0:0 / analyse=0x3:0x113 / me=hex / subme=7 / psy=1 / psy_rd=1.00:0.00 / mixed_ref=1 / me_range=16 / chroma_me=1 / trellis=2 / 8x8dct=1 / cqm=0 / deadzone=21,11 / fast_pskip=1 / chroma_qp_offset=-2 / threads=6 / sliced_threads=0 / nr=0 / decimate=1 / interlaced=0 / constrained_intra=0 / bframes=3 / b_pyramid=2 / b_adapt=1 / b_bias=0 / direct=1 / weightb=1 / open_gop=0 / weightp=2 / keyint=250 / keyint_min=23 / scenecut=40 / intra_refresh=0 / rc_lookahead=40 / rc=2pass / mbtree=1 / bitrate=2514 / ratetol=1.0 / qcomp=0.60 / qpmin=0 / qpmax=51 / qpstep=4 / cplxblur=20.0 / qblur=0.5 / ip_ratio=1.40 / aq=1:1.00
      Language : English
   Audio #2
      ID : 2
      Format : AC-3
      Format/Info : Audio Coding 3
      Codec ID : A_AC3
      Duration : 1h 39mn
      Bit rate mode : Constant
      Bit rate : 448 Kbps
      Channel(s) : 6 channels
      Channel positions : Front: L C R, Surround: L R, LFE
      Sampling rate : 48.0 KHz
      Stream size : 317 MiB (15%)
   Text #3
      ID : 3
      Format : UTF-8
      Codec ID : S_TEXT/UTF8
      Codec ID/Info : UTF-8 Plain Text
      Title : 中文



1 个附件 售价 大小 下载 时间

追击巨怪.720p.中文字幕.torrent 0 金币 22.20K 2022 次 2011-3-7

#1楼
发帖时间:2011-03-07 17:55:46   |   回复数:20
游客组