呆呆狐狸
超级版主

[合 集] [欧美] [打包] [动画] [BT下载][美梦成真 Wishenpoof 第一至二季][全02季集][英语英字][MKV][1080P][片源]

-->

◎译  名 美梦成真

◎片  名 Wishenpoof! Season 1

◎年  代 2014

◎产  地 美国

◎类  别 家庭

◎语  言 英语

◎上映日期 2014-02-06

◎BT之家整理 http://www.btbtt.us/

◎片  长 23分钟

◎主  演 Addison Holley

      Allison Augustin

      斯科特·麦克科德 Scott McCord


◎简  介


  Bianca is just like any girl...well, kind of. She has one teeny ability, "wish magic" - the power to make wishes come true.



Video
ID : 1
Format : AVC
Format/Info : Advanced Video Codec
Format profile : High@L4
Format settings : CABAC / 4 Ref Frames
Format settings, CABAC : Yes
Format settings, ReFrames : 4 frames
Codec ID : V_MPEG4/ISO/AVC
Duration : 22 min 42 s
Bit rate : 8 472 kb/s
Width : 1 920 pixels
Height : 1 080 pixels
Display aspect ratio : 16:9
Frame rate mode : Constant
Frame rate : 23.976 (24000/1001) FPS
Color space : YUV
Chroma subsampling : 4:2:0
Bit depth : 8 bits
Scan type : Progressive
Bits/(Pixel*Frame) : 0.170
Stream size : 1.34 GiB (93%)
Default : Yes
Forced : No
Color range : Limited
Color primaries : BT.709
Transfer characteristics : BT.709
Matrix coefficients : BT.709

Audio
ID : 2
Format : E-AC-3
Format/Info : Enhanced Audio Coding 3
Codec ID : A_EAC3
Duration : 22 min 42 s
Bit rate mode : Constant
Bit rate : 640 kb/s
Channel(s) : 6 channels
Channel positions : Front: L C R, Side: L R, LFE
Sampling rate : 48.0 kHz
Frame rate : 187.500 FPS (256 SPF)
Compression mode : Lossy
Stream size : 104 MiB (7%)
Language : English
Service kind : Complete Main
Default : Yes
Forced : No

Text
ID : 3
Format : UTF-8
Codec ID : S_TEXT/UTF8
Codec ID/Info : UTF-8 Plain Text
Duration : 22 min 29 s
Bit rate : 59 b/s
Count of elements : 471
Stream size : 9.81 KiB (0%)
Title : SDH
Language : English
Default : No
Forced : No

Menu
00:00:00.000 : en:Amazon Original
00:00:04.000 : en:Opening Credits
00:00:50.000 : en:Bob and Bianca put on a friendship show
00:07:31.000 : en:Bianca asks Laurel why she is sad
00:10:31.000 : en:Bianca visits the bear village in the Enchanted Forest
00:17:26.000 : en:Bianca introduces Laurel to Lola
00:19:11.000 : en:Bianca and her friends put on a new friendship show
00:22:06.000 : en:End Credits



2 个附件 售价 大小 下载 时间

Wishenpoof.S01.1080p.AMZN.WEBRip.DDP5.1.x264-QOQ[btbtt.me].torrent 0 金币 78.24K 112 次 1月前

Wishenpoof.S02.1080p.AMZN.WEBRip.DDP5.1.x264-QOQ[btbtt.me].torrent 0 金币 56.35K 98 次 1月前

#1楼
发帖时间:2018-09-14 22:25:55   |   回复数:1
911degrees
隐世仙人♂
非常感谢,谢谢分享
1月前 #2楼
游客组