339653326
小有名气

[2018] [印度] [犯罪] [纯净版] [网盘下载][孟买酒店/失控危城][BD-MP4/5.31G][H265][印度语/英语/中英字幕][1080P][无广告无水印]

-->



◎译  名 孟买酒店 / 失控危城(台)
◎片  名 Hotel Mumbai
◎年  代 2018
◎产  地 澳大利亚 / 美国 / 印度
◎类  别 剧情 / 惊悚 / 历史
◎语  言 英语 / 印地语 / 旁遮普语 / 希腊语 / 俄语 / 阿拉伯语 / 乌尔都语 / 波斯语
◎上映日期 2018-09-07(多伦多电影节) / 2018-10-10(阿德莱德电影节)
◎IMDb评分  7.8/10 from 6952 users
◎IMDb链接  http://www.imdb.com/title/tt5461944
◎豆瓣评分 8.4/10 from 1475 users
◎豆瓣链接 https://movie.douban.com/subject/26794701/
◎片  长 125分钟
◎导  演 安东尼·马拉斯 Anthony Maras
◎编  剧 安东尼·马拉斯 Anthony Maras / 约翰·科里 John Collee
◎主  演 艾米·汉莫 Armie Hammer
      纳赞宁·波妮阿蒂 Nazanin Boniadi
      戴夫·帕特尔 Dev Patel
      詹森·艾萨克 Jason Isaacs
      阿努潘·凯尔 Anupam Kher
      刘承羽 Natasha Liu Bordizzo
      安格斯·麦克拉伦 Angus McLaren
      萨钦·乔伯 Sachin Joab
      蒂尔达·格哈姆-哈维 Tilda Cobham-Hervey
      维品·沙尔马 Vipin Sharma
      阿布罗伊·辛格 Abhiroy Singh
      迪维亚·阿妮 Divya Unny
      桑迪普·博雅卡 Sandeep Bhojak
      Zenia Starr


◎标  签 印度 | 犯罪 | 剧情 | 惊悚 | 历史 | 2018 | 澳大利亚 | 电影

◎简  介  

  影片真实再现震惊世界的“印度9·11”孟买恐袭事件,2008年11月,著名的泰姬陵酒店意外遭到恐怖分子入侵,恐怖分子无差别行凶,让整个酒店陷入绝望之境,百余名酒店住客及员工被困,无人得知何时能等来救援,一场与死神的赛跑就此开启…


文件属性:

General

Complete name                            : E:\115下载\Hotel.Mumbai.2018.1080p.BluRay.X264-AMIABLE[rarbg]\孟M酒D.MH0tel.Mumbai.2018.HEVC.1080p.BD.X265-电影解忧酱@公众号.mp4

Format                                   : MPEG-4

Format profile                           : Base Media

Codec ID                                 : isom (isom/iso2/mp41)

File size                                : 5.32 GiB

Duration                                 : 2 h 2 min

Overall bit rate                         : 6 195 kb/s

Writing application                      : Lavf58.20.100

Cover                                    : Yes


Video

ID                                       : 1

Format                                   : HEVC

Format/Info                              : High Efficiency Video Coding

Format profile                           : [email protected]@Main

Codec ID                                 : hev1

Codec ID/Info                            : High Efficiency Video Coding

Duration                                 : 2 h 2 min

Duration_LastFrame                       : 2 ms

Bit rate                                 : 6 036 kb/s

Width                                    : 1 920 pixels

Height                                   : 1 080 pixels

Display aspect ratio                     : 16:9

Frame rate mode                          : Constant

Frame rate                               : 23.976 (23976/1000) FPS

Original frame rate                      : 23.000 FPS

Color space                              : YUV

Chroma subsampling                       : 4:2:0

Bit depth                                : 8 bits

Bits/(Pixel*Frame)                       : 0.121

Stream size                              : 5.18 GiB (97%)

Menus                                    : 3

Codec configuration box                  : hvcC


Audio

ID                                       : 2

Format                                   : AAC LC

Format/Info                              : Advanced Audio Codec Low Complexity

Codec ID                                 : mp4a-40-2

Duration                                 : 2 h 2 min

Bit rate mode                            : Constant

Bit rate                                 : 155 kb/s

Channel(s)                               : 2 channels

Channel layout                           : L R

Sampling rate                            : 48.0 kHz

Frame rate                               : 46.875 FPS (1024 SPF)

Compression mode                         : Lossy

Stream size                              : 136 MiB (3%)

Default                                  : Yes

Alternate group                          : 1

Menus                                    : 3


Menu

ID                                       : 3

Codec ID                                 : text

Duration                                 : 2 h 2 min

Language                                 : English

Menu For                                 : 1,2



截图:


不怎么会截图- -


字幕来源:人人字幕


原视频分辨率1920*808   加了黑框成了 1920*1080


视频:


链接: https://pan.baidu.com/s/1C7lOTxrWao0BN0D6kqxfPQ 提取码: c415



#1楼
发帖时间:2019-06-12 18:44:22   |   回复数:9
继续支持
一代宗师
谢谢楼主无私分享无广告电影。
13天前 #2楼
wdygfaru123
小有名气
资源没有了
13天前 #3楼
339653326
小有名气
引用 wdygfaru123:

资源没有了


修复了 (〃'▽'〃)

13天前 #4楼
ALLEN820213
隐世仙人♂
感谢楼主分享!!!
13天前 #5楼
about456
一代宗师
多谢搂主分享!
13天前 #6楼
911degrees
隐世仙人♂
非常感谢,谢谢分享
13天前 #7楼
oder2004
武林高手
感谢楼主分享!!!
12天前 #8楼
度日如时
小有名气
又挂了
5天前 #9楼
339653326
小有名气
引用 度日如时:

又挂了

修复了

5天前 #10楼
游客组