呆呆狐狸
超级版主

[2018] [印度] [动作] [打包] [BT下载][米尔扎布尔/Mirzapur 第一季][全09集打包][印语英字][MKV][720P/1080P][片源]

-->


◎译  名 米尔扎布尔 第一季

◎片  名 Mirzapur Season 1

◎年  代 2018

◎产  地 印度

◎类  别 剧情 / 动作 / 惊悚

◎语  言 印地语

◎上映日期 2018-11-16(印度)

◎IMDb评分 8.5/10 from 14895 users

◎IMDb链接 http://www.imdb.com/title/tt6473300

◎BT之家整理 http://8btbtt.com/ 

◎集  数 9

◎片  长 60分钟

◎导  演 Karan Anshuman / Gurmmeet Singh / Mihir Desai

◎编  剧 Karan Anshuman / Puneet Krishna / Vineet Krishnan

◎主  演 Abhishek Banerjee

      谢巴·查达 Sheeba Chaddha

      Shaji Chaudhary

      Rasika Dugal

      阿里·扎勒 Ali Fazal

      Harshita Gaur

      Kulbhushan Kharbanda




◎简  介  


  米尔扎布尔是由 Excel Entertainment制作的亚马逊Prime视频的印度犯罪惊悚片网络电视连续剧。该剧主要在米尔扎普拍摄,在 Jaunpur,Azamgarh,Ghazipur,Lucknow和 Gorakhpur拍摄。它围绕毒品,枪支和无法无天。它描绘了黑手党的腐败,治理和统治,以及北方邦Purvanchal地区的竞争和犯罪。它的第1季共包含9集。该系列是亚马逊Prime视频的第三部小说“印第安原版”,仅限于Inside Edge和Breathe。它包括Pankaj Tripathi,Ali Fazal,Vikrant Massey,Shweta Tripathi,Shriya Pilgaonkar,Rasika Dugal,Harshita Gaur,Divyendu Sharma和Kulbhushan Kharbanda。


Video
ID : 1
Format : AVC
Format/Info : Advanced Video Codec
Format profile : [email protected]
Format settings : CABAC / 4 Ref Frames
Format settings, CABAC : Yes
Format settings, ReFrames : 4 frames
Codec ID : V_MPEG4/ISO/AVC
Duration : 46 min 45 s
Bit rate : 6 159 kb/s
Width : 1 920 pixels
Height : 1 080 pixels
Display aspect ratio : 16:9
Frame rate mode : Constant
Frame rate : 25.000 FPS
Color space : YUV
Chroma subsampling : 4:2:0
Bit depth : 8 bits
Scan type : Progressive
Bits/(Pixel*Frame) : 0.119
Stream size : 2.01 GiB (91%)
Default : Yes
Forced : No
Color range : Limited
Color primaries : BT.709
Transfer characteristics : BT.709
Matrix coefficients : BT.709

Audio
ID : 2
Format : E-AC-3
Format/Info : Enhanced AC-3
Commercial name : Dolby Digital Plus
Codec ID : A_EAC3
Duration : 46 min 45 s
Bit rate mode : Constant
Bit rate : 640 kb/s
Channel(s) : 6 channels
Channel layout : L R C LFE Ls Rs
Sampling rate : 48.0 kHz
Frame rate : 31.250 FPS (1536 SPF)
Compression mode : Lossy
Stream size : 214 MiB (9%)
Title : Hindi
Language : Hindi
Service kind : Complete Main
Default : No
Forced : No

Text
ID : 3
Format : UTF-8
Codec ID : S_TEXT/UTF8
Codec ID/Info : UTF-8 Plain Text
Duration : 44 min 32 s
Bit rate : 26 b/s
Count of elements : 415
Stream size : 8.59 KiB (0%)
Title : English [Full]
Language : English
Default : Yes
Forced : No

Menu
00:00:00.000 : en:Amazon Original
00:00:05.000 : en:Disclaimer
00:00:15.000 : en:Election time
00:04:46.000 : en:Opening Credits
00:05:41.000 : en:Maurya and Sinha interrogate Haseena and Jasmine
00:11:43.000 : en:Guddu and family go to attend Shabnam\'s wedding
00:14:30.000 : en:Munna gets to know the place of wedding
00:18:25.000 : en:Munna takes control over the marriage
00:25:57.000 : en:Bauji tells a shocking news to Beena
00:28:31.000 : en:Golu tries to shoot Munna
00:32:30.000 : en:Bauji and Munna take revenge
00:39:00.000 : en:Sudden turn of events
00:44:36.000 : en:The return of Sharad
00:45:29.000 : en:End Credits



2 个附件 售价 大小 下载 时间

Mirzapur.S01.HINDI.720p.AMZN.WEBRip.DDP5.1.x264-RCVR[92btbtt.com].torrent 0 金币 34.22K 350 次 3月前

Mirzapur.S01.HINDI.1080p.AMZN.WEBRip.DDP5.1.x264-NG[92btbtt.com].torrent 0 金币 78.73K 322 次 3月前

#1楼
发帖时间:2019-02-20 12:24:37   |   回复数:1
911degrees
隐世仙人♂
非常感谢,谢谢分享
3月前 #2楼
游客组