呆呆狐狸
超级版主

[2016] [法国] [悬疑] [打包] [BT下载][隔墙有眼/Beyond the Walls 第一季][全03集打包][法语无字][MKV][720P][片源]

-->




◎译  名 隔墙有眼 / Beyond the Walls

◎片  名 Au-delà des Murs

◎年  代 2016

◎产  地 法国

◎类  别 剧情 / 悬疑 / 恐怖

◎语  言 法语

◎上映日期 2016-09-22(法国)

◎IMDb评分 7.1/10 from 629 users

◎IMDb链接 http://www.imdb.com/title/tt4999820

◎BT之家整理 http://www.51btbtt.com/

◎集  数 3

◎编  剧 Hervé Hadmar / Marc Herpoux

◎主  演 薇儿拉·贝坦丝 Veerle Baetens

      François Deblock

      杰拉丁·卓别林 Geraldine Chaplin

      Cédric Lechapelier

      Lila-Rose Gilberti

      Carmelo Carpenito

      Philippe Grand'Henry




◎简  介  


  Lisa, a young speech therapist, heirs a house from an unknown man who died over 20 years ago. She is not in any way related to this man and she doesn't know him. When she moves into the mysterious building, she becomes trapped in a true labyrinth...


Video
ID : 1
Format : AVC
Format/Info : Advanced Video Codec
Format profile : [email protected]
Format settings : CABAC / 5 Ref Frames
Format settings, CABAC : Yes
Format settings, ReFrames : 5 frames
Codec ID : V_MPEG4/ISO/AVC
Duration : 52 min 24 s
Bit rate mode : Variable
Bit rate : 2 687 kb/s
Maximum bit rate : 4 500 kb/s
Width : 1 280 pixels
Height : 640 pixels
Display aspect ratio : 2.000
Frame rate mode : Constant
Frame rate : 29.970 (30000/1001) FPS
Color space : YUV
Chroma subsampling : 4:2:0
Bit depth : 8 bits
Scan type : Progressive
Bits/(Pixel*Frame) : 0.109
Stream size : 1 007 MiB (92%)
Default : Yes
Forced : No
Color range : Limited
Color primaries : BT.709
Transfer characteristics : BT.709
Matrix coefficients : BT.709

Audio
ID : 2
Format : E-AC-3
Format/Info : Enhanced AC-3
Commercial name : Dolby Digital Plus
Codec ID : A_EAC3
Duration : 52 min 24 s
Bit rate mode : Constant
Bit rate : 224 kb/s
Channel(s) : 2 channels
Channel layout : L R
Sampling rate : 48.0 kHz
Frame rate : 31.250 FPS (1536 SPF)
Compression mode : Lossy
Stream size : 84.0 MiB (8%)
Language : English
Service kind : Complete Main
Default : Yes
Forced : No



1 个附件 售价 大小 下载 时间

Beyond.the.Walls.S01.SUBBED.720p.AMZN.WEBRip.DDP2.0.x264-NTG[btbtt.me].torrent 0 金币 31.87K 546 次 6月前

#1楼
发帖时间:2019-02-12 21:19:56   |   回复数:1
911degrees
隐世仙人♂
非常感谢,谢谢分享
6月前 #2楼
游客组