呆呆狐狸
超级版主

[2018] [英国] [喜剧] [打包] [BT下载][崩溃边缘的女人/Women on the Verge 第一季][全06集打包][英语无字][MKV][1080P][片源]

-->



◎译  名 崩溃边缘的女人 第一季

◎片  名 Women on the Verge Season 1

◎年  代 2018

◎产  地 英国

◎语  言 英语

◎上映日期 2018-10-11(英国)

◎IMDb评分 7.3/10 from 81 users

◎IMDb链接 http://www.imdb.com/title/tt8807058

◎BT之家整理 http://www.51btbtt.com/

◎集  数 6

◎片  长 40分钟

◎导  演 Annie Griffin

◎编  剧 莎朗·豪根 Sharon Horgan

◎主  演 凯瑞·康顿 Kerry Condon

      莎朗·豪根 Sharon Horgan

      露丝·霍洛克斯 Ruth Horrocks

      阿隆·麦克卡斯克 Aaron McCusker

      尼娜·索珊娅 Nina Sosanya




◎简  介  


  Set in Dublin| Women on the Verge tells the darkly comic tale of three career-driven friends in their 30's| at various stages of their lives| who share the samenagging concern - that whilst their friends and colleagues seem to be increasingly in control of their lives| their own lives seem to be moving in the oppositedirection.



Video
ID : 1
Format : AVC
Format/Info : Advanced Video Codec
Format profile : Main@L3.1
Format settings : CABAC / 2 Ref Frames
Format settings, CABAC : Yes
Format settings, ReFrames : 2 frames
Codec ID : V_MPEG4/ISO/AVC
Duration : 30 min 2 s
Bit rate mode : Variable
Bit rate : 1 975 kb/s
Maximum bit rate : 1 995 kb/s
Width : 1 024 pixels
Height : 576 pixels
Display aspect ratio : 16:9
Frame rate mode : Constant
Frame rate : 25.000 FPS
Standard : PAL
Color space : YUV
Chroma subsampling : 4:2:0
Bit depth : 8 bits
Scan type : Progressive
Bits/(Pixel*Frame) : 0.134
Stream size : 424 MiB (97%)
Default : Yes
Forced : No
Color range : Limited

Audio
ID : 2
Format : AAC LC SBR
Format/Info : Advanced Audio Codec Low Complexity with Spectral Band Replication
Commercial name : HE-AAC
Format settings : Explicit
Codec ID : A_AAC-2
Duration : 30 min 2 s
Bit rate : 62.8 kb/s
Channel(s) : 2 channels
Channel layout : L R
Sampling rate : 44.1 kHz
Frame rate : 21.533 FPS (2048 SPF)
Compression mode : Lossy
Delay relative to video : -40 ms
Stream size : 13.5 MiB (3%)
Language : English
Default : Yes
Forced : No



1 个附件 售价 大小 下载 时间

Women.On.The.Verge.S01.RTE.WEBRip.AAC2.0.x264-RTN[btbtt.me].torrent 0 金币 26.41K 196 次 6天前

#1楼
发帖时间:2019-02-11 23:29:29   |   回复数:2
911degrees
隐世仙人♂
非常感谢,谢谢分享
5天前 #2楼
金枪西门庆
一派掌门
感谢楼主分享,支持了。
5天前 #3楼
游客组