呆呆狐狸
超级版主

[2019] [其他] [剧情] [打包] [BT下载][无声的抵抗/Resistance 第一季][全05集打包][英语无字][MKV][1080P][片源]

-->


◎译  名 无声的抵抗 第一季

◎片  名 Resistance Season 1

◎年  代 2019

◎产  地 爱尔兰

◎类  别 剧情

◎语  言 英语

◎上映日期 2019-01-09(爱尔兰)

◎IMDb评分 8.2/10 from 64 users

◎IMDb链接 http://www.imdb.com/title/tt9555104

◎BT之家整理 http://www.51btbtt.com/

◎集  数 5

◎片  长 50分钟

◎导  演 凯瑟琳·莫斯海德 Catherine Morshead

◎编  剧 Colin Teevan

◎主  演 Matthew Hopkinson

      Dale Leadon Bolger

      布莱恩·格里森 Brian Gleeson

      加文·德里 Gavin Drea

      凯瑟琳·沃克 Catherine Walker

      Aoife Duffin




◎简  介  


  欢迎来到1920年的爱尔兰。一切都是双重的:两个国家,两个军队,两个司法系统。并且每个国家公然和秘密地工作以破坏另一个国家,父母和子女,兄弟姐妹,丈夫和妻子都被迫活双重生活,不能相互信任。国家的破坏和崩溃与我们的主人公的家庭和关系相呼应。每个人都在为自己的生命和未来而战。


Video
ID : 1
Format : AVC
Format/Info : Advanced Video Codec
Format profile : High@L4
Format settings : CABAC / 4 Ref Frames
Format settings, CABAC : Yes
Format settings, ReFrames : 4 frames
Codec ID : V_MPEG4/ISO/AVC
Duration : 50 min 45 s
Bit rate : 6 200 kb/s
Width : 1 920 pixels
Height : 1 080 pixels
Display aspect ratio : 16:9
Frame rate mode : Constant
Frame rate : 25.000 FPS
Color space : YUV
Chroma subsampling : 4:2:0
Bit depth : 8 bits
Scan type : Progressive
Bits/(Pixel*Frame) : 0.120
Stream size : 2.17 GiB (99%)
Writing library : x264 core 148
Encoding settings : cabac=1 / ref=1 / deblock=1:0:0 / analyse=0x3:0x113 / me=hex / subme=7 / psy=0 / mixed_ref=0 / me_range=16 / chroma_me=1 / trellis=1 / 8x8dct=1 / cqm=0 / deadzone=21,11 / fast_pskip=1 / chroma_qp_offset=0 / threads=7 / lookahead_threads=1 / sliced_threads=0 / nr=0 / decimate=1 / interlaced=0 / paff=0 / bluray_compat=0 / constrained_intra=0 / bframes=2 / b_pyramid=2 / b_adapt=1 / b_bias=0 / direct=1 / weightb=1 / open_gop=0 / weightp=2 / keyint=50 / keyint_min=5 / scenecut=40 / intra_refresh=0 / rc_lookahead=40 / rc=cbr / mbtree=1 / bitrate=6200 / ratetol=1.0 / qcomp=0.60 / qpmin=0 / qpmax=69 / qpstep=4 / vbv_maxrate=6200 / vbv_bufsize=6200 / nal_hrd=none / filler=0 / ip_ratio=1.40 / aq=1:0.00
Default : Yes
Forced : No
Color range : Limited
Color primaries : BT.709
Transfer characteristics : BT.709
Matrix coefficients : BT.709

Audio
ID : 2
Format : AAC LC SBR PS
Format/Info : Advanced Audio Codec Low Complexity with Spectral Band Replication and Parametric Stereo
Commercial name : HE-AACv2
Format settings : Implicit
Codec ID : A_AAC-2
Duration : 50 min 45 s
Bit rate : 64.0 kb/s
Channel(s) : 2 channels
Channel layout : C
Sampling rate : 48.0 kHz
Frame rate : 23.438 FPS (2048 SPF)
Compression mode : Lossy
Delay relative to video : -80 ms
Stream size : 23.2 MiB (1%)
Default : Yes
Forced : No

Text
ID : 3
Format : UTF-8
Codec ID : S_TEXT/UTF8
Codec ID/Info : UTF-8 Plain Text
Duration : 49 min 12 s
Bit rate : 75 b/s
Count of elements : 790
Stream size : 27.2 KiB (0%)
Default : Yes
Forced : No




1 个附件 售价 大小 下载 时间

Resistance.2019.S01.1080p.RTE.WEBRip.AAC2.0.x264-RTN[btbtt.me].torrent 0 金币 55.07K 280 次 6天前

#1楼
发帖时间:2019-02-11 23:18:17   |   回复数:3
911degrees
隐世仙人♂
非常感谢,谢谢分享
5天前 #2楼
金枪西门庆
一派掌门
感谢楼主分享,支持了。
5天前 #3楼
金枪西门庆
一派掌门
感谢楼主分享,支持了。
5天前 #4楼
游客组