呆呆狐狸
超级版主

[2017] [美国] [科幻] [打包] [BT下载][第五日/睡魔来袭 Day 5 第二季][全08集打包][英语无字][BD-MKV][720P/1080P][片源]

-->



◎译  名 第五日 第二季/睡魔来袭/未来永无眠

◎片  名 Day 5 Season 2

◎年  代 2016

◎产  地 美国

◎类  别 科幻/悬疑

◎语  言 英语

◎上映日期 2017

◎IMDb评分  8.1/10 from 707 users

◎IMDb链接  http://www.imdb.com/title/tt5707408/

◎BT之家整理 http://www.btbtt.us/

◎集  数 8

◎片  长 43分钟

◎导  演 Joshua Flanagan / Mark Lambert Bristol / Chris Demarais / Aaron Marquis / Todd McMullen

◎主  演 杰西·C·博伊德 Jesse C. Boyd

      Walker Satterwhite

      Stephanie Drapeau

      戴维·杰 Davi Jay

      Lee Eddy

      Alisha Revel

      Kelsey Pribilski

      Natasha Aldridge

      Mallory Mahoney

      乔·艾斯特维兹 Joe Estevez

      胡里奥·赛迪罗 Julio Cedillo

      L.B. Deyo

      Barbara Dunkelman

      Gustavo Gómez

      Garrett Graham

      Caiti Ward

      Katie Folger

      Drew Pollock

      Gerald J. Garza

      Chris Lemchi


◎简  介


  第五日”是Rooster Teeth Productions的第一部剧作,是一个关于生存与赎罪的故事,背景设定为一种很奇怪的致命病菌于一夜席卷全球,导致人们在睡着的那刻就会莫名地死去,再无法醒转。第二天早上,当因为吸毒而偶然幸存的毒瘾患者Jake(Jesse C Boyd饰)跑到空空荡荡的街道上时,完全没有意识到绝大部分世界的人口都已经死于床上。就这样,Jake遇到了一帮由于各种原因幸存下来的人们,其中有整夜混迹的小流氓、通宵执勤的医生、夜航归来的飞行员。他们组织起来,一边抵抗着极度的渴睡,通过各种方式极力刺激自己的神经以保持清醒,一边寻求着这种神秘疾病的来源,又或许,只是或许,能够找回失落的睡眠。他们到底能够走到哪一步呢?失眠的日子又究竟是否能迎来终结呢?


Video
ID : 1
Format : AVC
Format/Info : Advanced Video Codec
Format profile : [email protected]
Format settings : CABAC / 5 Ref Frames
Format settings, CABAC : Yes
Format settings, ReFrames : 5 frames
Codec ID : V_MPEG4/ISO/AVC
Duration : 39 min 13 s
Bit rate : 10.4 Mb/s
Width : 1 920 pixels
Height : 800 pixels
Display aspect ratio : 2.40:1
Frame rate mode : Constant
Frame rate : 23.976 (24000/1001) FPS
Color space : YUV
Chroma subsampling : 4:2:0
Bit depth : 8 bits
Scan type : Progressive
Bits/(Pixel*Frame) : 0.284
Stream size : 2.86 GiB (87%)
Writing library : x264 core 157 r2935 545de2f
Encoding settings : cabac=1 / ref=5 / deblock=1:-3:-3 / analyse=0x3:0x133 / me=umh / subme=9 / psy=1 / psy_rd=1.00:0.00 / mixed_ref=1 / me_range=24 / chroma_me=1 / trellis=1 / 8x8dct=1 / cqm=0 / deadzone=21,11 / fast_pskip=0 / chroma_qp_offset=-2 / threads=18 / lookahead_threads=3 / sliced_threads=0 / nr=0 / decimate=1 / interlaced=0 / bluray_compat=0 / constrained_intra=0 / bframes=8 / b_pyramid=2 / b_adapt=2 / b_bias=0 / direct=3 / weightb=1 / open_gop=0 / weightp=2 / keyint=250 / keyint_min=23 / scenecut=40 / intra_refresh=0 / rc_lookahead=60 / rc=2pass / mbtree=1 / bitrate=10450 / ratetol=1.0 / qcomp=0.60 / qpmin=0 / qpmax=69 / qpstep=4 / cplxblur=20.0 / qblur=0.5 / vbv_maxrate=62500 / vbv_bufsize=78125 / nal_hrd=none / filler=0 / ip_ratio=1.40 / aq=1:1.00
Default : Yes
Forced : No

Audio
ID : 2
Format : DTS
Format/Info : Digital Theater Systems
Codec ID : A_DTS
Duration : 39 min 13 s
Bit rate mode : Constant
Bit rate : 1 509 kb/s
Channel(s) : 6 channels
Channel layout : C L R Ls Rs LFE
Sampling rate : 48.0 kHz
Frame rate : 93.750 FPS (512 SPF)
Bit depth : 24 bits
Compression mode : Lossy
Stream size : 423 MiB (13%)
Language : English
Default : Yes
Forced : No



2 个附件 售价 大小 下载 时间

Day.5.S02.720p.BluRay.x264-OUIJA[btbtt.me].torrent 0 金币 89.60K 385 次 5月前

Day.5.S02.1080p.BluRay.x264-OUIJA[btbtt.me].torrent 0 金币 67.81K 315 次 5月前

#1楼
发帖时间:2019-01-11 18:52:33   |   回复数:2
blj2007
一派掌门
感谢分享,辛苦啦
5月前 #2楼
911degrees
隐世仙人♂
非常感谢,谢谢分享
5月前 #3楼
游客组