呆呆狐狸
超级版主

[2019] [美国] [喜剧] [打包] [BT下载][大学同学/Friends from College 第二季][全08集打包][英语英字][MKV][720P/1080P][片源]

-->


◎译  名 大学同学 第二季 / 大学同窗 / 大学死党

◎片  名 Friends from College Season 2

◎年  代 2019

◎产  地 美国

◎类  别 剧情 / 喜剧

◎语  言 英语

◎上映日期 2019-01-11(美国)

◎IMDb链接 http://www.imdb.com/title/tt7282590

◎BT之家整理 http://www.btbtt.us/

◎集  数 8

◎编  剧 伊恩·爱德华兹 Ian Edwards / Broti Gupta

◎主  演 珍妮弗·拉弗勒 Jennifer Lafleur

      桃乐丝·麦卡锡 Doris McCarthy

      萨克·罗比达斯 Zack Robidas




◎简  介  


  Ethan、Lisa、Sam、Nick、Max和Marianne是六个而立之年的哈佛大学校友。他们生活在同一座城市,但他们的关系从来就没简单过。Ethan和Sam的婚外情曝光已有一年时间,其他四个朋友都知道了他们的丑事,包括Ethan的妻子Lisa。这一年来,Lisa和所有人中断了联系,音信皆无;Ethan对当初的行为颇感后悔,于是关门谢客,潜心撰写一本青春小说;Sam试图修复自己与丈夫Jon的婚姻。Max的婚礼即将到来,这些朋友都应邀参加,这意味着他们无法再躲着彼此。在订婚聚会、单身汉聚会和婚礼之间,这六个朋友必须忘记过去那些几乎毁掉他们的事情,重新成为一个整体,成为一个新的朋友圈。他们能做到不计前嫌吗?或者他们会重蹈历史的覆辙?第二季共有8集。


Sarah Chalke本季扮演Merrill Morgan,一个离了婚的母亲,独自照顾青春期儿子Prescott。对于所有认识她的人来说,她就是个「大姐大」——美丽、率直、自信。她就像从电影银幕上走下来的影后Gwyneth Paltrow,但却少了一份西海岸的成熟与醇厚的味道。她和Nick在大学时代曾短暂约会,如今两人在一个聚会上再次相遇。Nick的朋友们都认为Merrill和Nick是天生的一对,但这反而让Nick感到紧张。和一个真正适合他的女人约会……这种压力简直前所未有。因为他不知道自己该怎么做!


Billy Eichner本季扮演Max的同性恋男友Felix,两人的关系总是若即若离。最近他们突然宣布即将结婚的消息,给整个朋友圈带来巨大冲击——虽然过去有种种的不愉快,但他们必须共同参加两人的订婚仪式、单身汉聚会和最终的婚礼。



Video
ID : 1
Format : AVC
Format/Info : Advanced Video Codec
Format profile : Main@L4
Format settings : CABAC / 3 Ref Frames
Format settings, CABAC : Yes
Format settings, ReFrames : 3 frames
Codec ID : V_MPEG4/ISO/AVC
Duration : 29 min 38 s
Bit rate mode : Variable
Bit rate : 6 190 kb/s
Maximum bit rate : 9 285 kb/s
Width : 1 920 pixels
Height : 1 080 pixels
Display aspect ratio : 16:9
Frame rate mode : Constant
Frame rate : 23.976 (24000/1001) FPS
Color space : YUV
Chroma subsampling : 4:2:0
Bit depth : 8 bits
Scan type : Progressive
Bits/(Pixel*Frame) : 0.125
Stream size : 1.23 GiB (90%)
Writing library : x264 core 148 r2715 7e75228
Encoding settings : cabac=1 / ref=3 / deblock=1:0:0 / analyse=0x1:0x111 / me=umh / subme=10 / psy=1 / psy_rd=1.00:0.00 / mixed_ref=1 / me_range=24 / chroma_me=1 / trellis=2 / 8x8dct=0 / cqm=0 / deadzone=21,11 / fast_pskip=1 / chroma_qp_offset=-2 / threads=8 / lookahead_threads=1 / sliced_threads=0 / nr=0 / decimate=1 / interlaced=0 / bluray_compat=0 / stitchable=1 / constrained_intra=0 / bframes=2 / b_pyramid=0 / b_adapt=2 / b_bias=0 / direct=3 / weightb=1 / open_gop=0 / weightp=2 / keyint=48 / keyint_min=25 / scenecut=0 / intra_refresh=0 / rc_lookahead=48 / rc=2pass / mbtree=1 / bitrate=6190 / ratetol=1.0 / qcomp=0.50 / qpmin=6 / qpmax=51 / qpstep=4 / cplxblur=20.0 / qblur=0.5 / vbv_maxrate=9285 / vbv_bufsize=12380 / nal_hrd=vbr / filler=0 / ip_ratio=1.40 / aq=1:1.00
Language : English
Default : Yes
Forced : No

Audio
ID : 2
Format : E-AC-3
Format/Info : Enhanced AC-3
Commercial name : Dolby Digital Plus
Codec ID : A_EAC3
Duration : 29 min 38 s
Bit rate mode : Constant
Bit rate : 640 kb/s
Channel(s) : 6 channels
Channel layout : L R C LFE Ls Rs
Sampling rate : 48.0 kHz
Frame rate : 31.250 FPS (1536 SPF)
Compression mode : Lossy
Stream size : 136 MiB (10%)
Title : English [Original]
Language : English
Service kind : Complete Main
Default : Yes
Forced : No

Text #1
ID : 3
Format : UTF-8
Codec ID : S_TEXT/UTF8
Codec ID/Info : UTF-8 Plain Text
Duration : 27 min 39 s
Bit rate : 83 b/s
Count of elements : 640
Stream size : 17.0 KiB (0%)
Title : English
Language : English
Default : No
Forced : No

Text #2
ID : 4
Format : UTF-8
Codec ID : S_TEXT/UTF8
Codec ID/Info : UTF-8 Plain Text
Duration : 27 min 40 s
Bit rate : 73 b/s
Count of elements : 635
Stream size : 15.0 KiB (0%)
Title : Japanese
Language : Japanese
Default : No
Forced : No

Text #3
ID : 5
Format : UTF-8
Codec ID : S_TEXT/UTF8
Codec ID/Info : UTF-8 Plain Text
Duration : 27 min 40 s
Bit rate : 67 b/s
Count of elements : 616
Stream size : 13.7 KiB (0%)
Title : Italian
Language : Italian
Default : No
Forced : No

Text #4
ID : 6
Format : UTF-8
Codec ID : S_TEXT/UTF8
Codec ID/Info : UTF-8 Plain Text
Duration : 27 min 40 s
Bit rate : 70 b/s
Count of elements : 514
Stream size : 14.3 KiB (0%)
Title : Brazilian Portuguese
Language : English
Default : No
Forced : No

Text #5
ID : 7
Format : UTF-8
Codec ID : S_TEXT/UTF8
Codec ID/Info : UTF-8 Plain Text
Duration : 27 min 40 s
Bit rate : 62 b/s
Count of elements : 508
Stream size : 12.6 KiB (0%)
Title : Polish
Language : Polish
Default : No
Forced : No

Text #6
ID : 8
Format : UTF-8
Codec ID : S_TEXT/UTF8
Codec ID/Info : UTF-8 Plain Text
Duration : 27 min 40 s
Bit rate : 70 b/s
Count of elements : 575
Stream size : 14.3 KiB (0%)
Title : European Spanish
Language : English
Default : No
Forced : No

Text #7
ID : 9
Format : UTF-8
Codec ID : S_TEXT/UTF8
Codec ID/Info : UTF-8 Plain Text
Duration : 27 min 40 s
Bit rate : 69 b/s
Count of elements : 514
Stream size : 14.1 KiB (0%)
Title : Spanish
Language : Spanish
Default : No
Forced : No

Text #8
ID : 10
Format : UTF-8
Codec ID : S_TEXT/UTF8
Codec ID/Info : UTF-8 Plain Text
Duration : 27 min 40 s
Bit rate : 71 b/s
Count of elements : 593
Stream size : 14.5 KiB (0%)
Title : German
Language : German
Default : No
Forced : No

Text #9
ID : 11
Format : UTF-8
Codec ID : S_TEXT/UTF8
Codec ID/Info : UTF-8 Plain Text
Duration : 27 min 40 s
Bit rate : 76 b/s
Count of elements : 567
Stream size : 15.6 KiB (0%)
Title : French
Language : French
Default : No
Forced : No

Text #10
ID : 12
Format : UTF-8
Codec ID : S_TEXT/UTF8
Codec ID/Info : UTF-8 Plain Text
Duration : 27 min 40 s
Bit rate : 66 b/s
Count of elements : 594
Stream size : 13.5 KiB (0%)
Title : Turkish
Language : Turkish
Default : No
Forced : No

Text #11
ID : 13
Format : UTF-8
Codec ID : S_TEXT/UTF8
Codec ID/Info : UTF-8 Plain Text
Duration : 29 min 7 s
Bit rate : 138 b/s
Count of elements : 616
Stream size : 29.6 KiB (0%)
Title : Arabic
Language : Arabic
Default : No
Forced : No

Text #12
ID : 14
Format : UTF-8
Codec ID : S_TEXT/UTF8
Codec ID/Info : UTF-8 Plain Text
Duration : 27 min 40 s
Bit rate : 72 b/s
Count of elements : 610
Stream size : 14.6 KiB (0%)
Title : Danish
Language : Danish
Default : No
Forced : No

Text #13
ID : 15
Format : UTF-8
Codec ID : S_TEXT/UTF8
Codec ID/Info : UTF-8 Plain Text
Duration : 27 min 40 s
Bit rate : 120 b/s
Count of elements : 515
Stream size : 24.4 KiB (0%)
Title : Greek
Language : Greek
Default : No
Forced : No

Text #14
ID : 16
Format : UTF-8
Codec ID : S_TEXT/UTF8
Codec ID/Info : UTF-8 Plain Text
Duration : 27 min 40 s
Bit rate : 68 b/s
Count of elements : 351
Stream size : 13.8 KiB (0%)
Title : Finnish
Language : Finnish
Default : No
Forced : No

Text #15
ID : 17
Format : UTF-8
Codec ID : S_TEXT/UTF8
Codec ID/Info : UTF-8 Plain Text
Duration : 27 min 40 s
Bit rate : 110 b/s
Count of elements : 545
Stream size : 22.3 KiB (0%)
Title : Hebrew
Language : Hebrew
Default : No
Forced : No

Text #16
ID : 18
Format : UTF-8
Codec ID : S_TEXT/UTF8
Codec ID/Info : UTF-8 Plain Text
Duration : 27 min 40 s
Bit rate : 93 b/s
Count of elements : 617
Stream size : 18.9 KiB (0%)
Title : Korean
Language : Korean
Default : No
Forced : No

Text #17
ID : 19
Format : UTF-8
Codec ID : S_TEXT/UTF8
Codec ID/Info : UTF-8 Plain Text
Duration : 27 min 40 s
Bit rate : 64 b/s
Count of elements : 603
Stream size : 13.1 KiB (0%)
Title : Norwegian
Language : Norwegian Bokmal
Default : No
Forced : No

Text #18
ID : 20
Format : UTF-8
Codec ID : S_TEXT/UTF8
Codec ID/Info : UTF-8 Plain Text
Duration : 27 min 40 s
Bit rate : 57 b/s
Count of elements : 461
Stream size : 11.7 KiB (0%)
Title : Dutch
Language : Dutch
Default : No
Forced : No

Text #19
ID : 21
Format : UTF-8
Codec ID : S_TEXT/UTF8
Codec ID/Info : UTF-8 Plain Text
Duration : 27 min 40 s
Bit rate : 70 b/s
Count of elements : 520
Stream size : 14.4 KiB (0%)
Title : Portuguese
Language : Portuguese
Default : No
Forced : No

Text #20
ID : 22
Format : UTF-8
Codec ID : S_TEXT/UTF8
Codec ID/Info : UTF-8 Plain Text
Duration : 27 min 40 s
Bit rate : 90 b/s
Count of elements : 560
Stream size : 18.4 KiB (0%)
Title : Romanian
Language : Romanian
Default : No
Forced : No

Text #21
ID : 23
Format : UTF-8
Codec ID : S_TEXT/UTF8
Codec ID/Info : UTF-8 Plain Text
Duration : 27 min 40 s
Bit rate : 76 b/s
Count of elements : 523
Stream size : 15.5 KiB (0%)
Title : Swedish
Language : Swedish
Default : No
Forced : No

Text #22
ID : 24
Format : UTF-8
Codec ID : S_TEXT/UTF8
Codec ID/Info : UTF-8 Plain Text
Duration : 27 min 40 s
Bit rate : 180 b/s
Count of elements : 616
Stream size : 36.6 KiB (0%)
Title : Thai
Language : Thai
Default : No
Forced : No

Text #23
ID : 25
Format : UTF-8
Codec ID : S_TEXT/UTF8
Codec ID/Info : UTF-8 Plain Text
Duration : 27 min 40 s
Bit rate : 92 b/s
Count of elements : 617
Stream size : 18.8 KiB (0%)
Title : Simplified Chinese
Language : English
Default : No
Forced : No

Text #24
ID : 26
Format : UTF-8
Codec ID : S_TEXT/UTF8
Codec ID/Info : UTF-8 Plain Text
Duration : 27 min 40 s
Bit rate : 81 b/s
Count of elements : 616
Stream size : 16.6 KiB (0%)
Title : Traditional Chinese
Language : English
Default : No
Forced : No



2 个附件 售价 大小 下载 时间

Friends.from.College.S02.720p.NF.WEBRip.DDP5.1.x264-STRiFE[btbtt.me].torrent 0 金币 92.57K 238 次 6天前

Friends.from.College.S02.1080p.NF.WEBRip.DDP5.1.x264-STRiFE[btbtt.me].torrent 0 金币 80.96K 315 次 6天前

#1楼
发帖时间:2019-01-11 18:45:51   |   回复数:1
911degrees
隐世仙人♂
非常感谢,谢谢分享
6天前 #2楼
游客组