呆呆狐狸
超级版主

[2016] [英国] [剧情] [打包] [BT下载][国家淫才/National Treasure 第一季][全04集打包][英语英字][MKV][1080P][片源]

-->

◎译  名 国家淫才

◎片  名 National Treasure

◎年  代 2016

◎产  地 英国

◎类  别 剧情

◎语  言 英语

◎上映日期 2016-09-20(英国)

◎IMDb评分 7.4/10 from 1600 users

◎IMDb链接 http://www.imdb.com/title/tt5571524

◎豆瓣评分 7.6/10 from 226 users

◎豆瓣链接 https://movie.douban.com/subject/26602347/

◎BT之家整理 http://www.btbtt.us/

◎集  数 4

◎片  长 60分钟

◎导  演 马克·穆登 Marc Munden

◎编  剧 杰克·索恩 Jack Thorne

◎主  演 罗彼·考特拉尼 Robbie Coltrane

      朱丽·沃特斯 Julie Walters

      安德丽亚·瑞斯波罗格 Andrea Riseborough

      特里斯坦·格拉韦尔 Trystan Gravelle

      马克·路易斯·琼斯 Mark Lewis Jones

      蒂姆·麦克纳尼 Tim McInnerny

      艾伦·卡尔 Alan Carr

      萨姆·霍尔 Sam Hoare

      本·劳埃德-休斯 Ben Lloyd-Hughes




◎简  介  


  Channel 4预定四集性丑闻剧集《国家淫才》(National Treasure)。该剧虚构一个国宝级人才,因为性侵而被指控。该剧以调查案件以及开庭审判为主线,探讨加害人与受害人的心理。该剧由Jack Thorne创作,定于明年播出。新闻稿指,该剧取材于真人真事。讲述Paul Finchley曾主演现象级喜剧,广受观众喜爱,尽管淡出荧屏很多年,依然会被群众认出,是一个演艺界的国宝人才。但是,突然被揭发自上世纪70年代开始性侵女性。除了Paul受到铺天盖地媒体报道以及警方深入调查而困扰,还有出庭指控现已50岁的受害者也受到了同样待遇。


Video
ID : 1
Format : AVC
Format/Info : Advanced Video Codec
Format profile : [email protected]
Format settings : CABAC / 4 Ref Frames
Format settings, CABAC : Yes
Format settings, ReFrames : 4 frames
Codec ID : V_MPEG4/ISO/AVC
Duration : 47 min 28 s
Bit rate : 3 726 kb/s
Width : 1 920 pixels
Height : 1 080 pixels
Display aspect ratio : 16:9
Frame rate mode : Constant
Frame rate : 25.000 FPS
Color space : YUV
Chroma subsampling : 4:2:0
Bit depth : 8 bits
Scan type : Progressive
Bits/(Pixel*Frame) : 0.072
Stream size : 1.24 GiB (98%)
Default : Yes
Forced : No

Audio
ID : 2
Format : AAC LC SBR
Format/Info : Advanced Audio Codec Low Complexity with Spectral Band Replication
Commercial name : HE-AAC
Format settings : Explicit
Codec ID : A_AAC-2
Duration : 47 min 28 s
Bit rate : 64.0 kb/s
Channel(s) : 2 channels
Channel layout : L R
Sampling rate : 48.0 kHz
Frame rate : 23.438 FPS (2048 SPF)
Compression mode : Lossy
Stream size : 21.7 MiB (2%)
Language : English
Default : Yes
Forced : No

Text
ID : 3
Format : UTF-8
Codec ID : S_TEXT/UTF8
Codec ID/Info : UTF-8 Plain Text
Duration : 45 min 38 s
Bit rate : 78 b/s
Count of elements : 815
Stream size : 26.2 KiB (0%)
Language : English
Default : No
Forced : No



1 个附件 售价 大小 下载 时间

National.Treasure.S01.1080p.HULU.WEBRip.AAC2.0.x264-NTb[btbtt.me].torrent 0 金币 96.25K 749 次 5月前

#1楼
发帖时间:2019-01-11 17:44:26   |   回复数:2
911degrees
隐世仙人♂
非常感谢,谢谢分享
5月前 #2楼
chulps
一代宗师
~ 感谢分享 ~ 感谢 ~
5月前 #3楼
游客组