呆呆狐狸
隐世仙人♂

[2018] [其他] [动作] [打包] [BT下载][土耳其战狼/勇狼战队/Wolf 第一季][全06集打包][土耳其语中字][MKV][1080P][片源]

-->

注:Netflix版片源 内含官方中字  更多字幕详见下面参数列表

◎译  名 土耳其战狼

◎片  名 Wolf aka Boru

◎年  代 2018

◎产  地 土耳其

◎类  别 动作 / 战争

◎语  言 土耳其语

◎上映日期 2018-12-21

◎IMDb评分 9.0/10 from 2815 users

◎IMDb链接 https://www.imdb.com/title/tt7146600/

◎BT之家整理 http://www.btbtt.us/

◎集  数 06

◎导  演 Alper Caglar

◎主  演 Ahu Türkpençe ...  Asena Tümer

                    Serkan Çayoglu ...  Kaya Ülgen

                   Emir Benderlioglu ...  Turan Kara


◎简  介  


  一支特勤警队的成员奉命在土耳其全境执行危险任务,他们无论在外执勤或回到家乡,都得面对种种危险及悲剧。


Video
ID : 1
Format : AVC
Format/Info : Advanced Video Codec
Format profile : [email protected]
Format settings : CABAC / 3 Ref Frames
Format settings, CABAC : Yes
Format settings, ReFrames : 3 frames
Codec ID : V_MPEG4/ISO/AVC
Duration : 1 h 14 min
Bit rate mode : Variable
Bit rate : 7 500 kb/s
Maximum bit rate : 11.2 Mb/s
Width : 1 920 pixels
Height : 1 080 pixels
Display aspect ratio : 16:9
Frame rate mode : Constant
Frame rate : 25.000 FPS
Color space : YUV
Chroma subsampling : 4:2:0
Bit depth : 8 bits
Scan type : Progressive
Bits/(Pixel*Frame) : 0.145
Stream size : 3.84 GiB (92%)
Writing library : x264 core 148 r2715 7e75228
Encoding settings : cabac=1 / ref=3 / deblock=1:0:0 / analyse=0x1:0x111 / me=umh / subme=10 / psy=1 / psy_rd=1.00:0.00 / mixed_ref=1 / me_range=24 / chroma_me=1 / trellis=2 / 8x8dct=0 / cqm=0 / deadzone=21,11 / fast_pskip=1 / chroma_qp_offset=-2 / threads=8 / lookahead_threads=1 / sliced_threads=0 / nr=0 / decimate=1 / interlaced=0 / bluray_compat=0 / stitchable=1 / constrained_intra=0 / bframes=2 / b_pyramid=0 / b_adapt=2 / b_bias=0 / direct=3 / weightb=1 / open_gop=0 / weightp=2 / keyint=50 / keyint_min=26 / scenecut=0 / intra_refresh=0 / rc_lookahead=50 / rc=2pass / mbtree=1 / bitrate=7500 / ratetol=1.0 / qcomp=0.50 / qpmin=6 / qpmax=51 / qpstep=4 / cplxblur=20.0 / qblur=0.5 / vbv_maxrate=11250 / vbv_bufsize=15000 / nal_hrd=vbr / filler=0 / ip_ratio=1.40 / aq=1:1.00
Default : Yes
Forced : No

Audio
ID : 2
Format : E-AC-3
Format/Info : Enhanced AC-3
Commercial name : Dolby Digital Plus
Codec ID : A_EAC3
Duration : 1 h 14 min
Bit rate mode : Constant
Bit rate : 640 kb/s
Channel(s) : 6 channels
Channel layout : L R C LFE Ls Rs
Sampling rate : 48.0 kHz
Frame rate : 31.250 FPS (1536 SPF)
Compression mode : Lossy
Stream size : 343 MiB (8%)
Title : Turkish
Language : Turkish
Service kind : Complete Main
Default : No
Forced : No

Text #1
ID : 3
Format : UTF-8
Codec ID : S_TEXT/UTF8
Codec ID/Info : UTF-8 Plain Text
Duration : 1 h 13 min
Bit rate : 63 b/s
Count of elements : 921
Stream size : 34.0 KiB (0%)
Title : English [Full]
Language : English
Default : No
Forced : No

Text #2
ID : 4
Format : UTF-8
Codec ID : S_TEXT/UTF8
Codec ID/Info : UTF-8 Plain Text
Duration : 1 h 13 min
Bit rate : 55 b/s
Count of elements : 878
Stream size : 29.8 KiB (0%)
Title : Castilian [Full]
Language : Spanish
Default : No
Forced : No

Text #3
ID : 5
Format : UTF-8
Codec ID : S_TEXT/UTF8
Codec ID/Info : UTF-8 Plain Text
Duration : 1 h 13 min
Bit rate : 52 b/s
Count of elements : 868
Stream size : 28.7 KiB (0%)
Title : Spanish [Full]
Language : Spanish
Default : No
Forced : No

Text #4
ID : 6
Format : UTF-8
Codec ID : S_TEXT/UTF8
Codec ID/Info : UTF-8 Plain Text
Duration : 1 h 13 min
Bit rate : 52 b/s
Count of elements : 888
Stream size : 28.4 KiB (0%)
Title : French [Full]
Language : French
Default : No
Forced : No

Text #5
ID : 7
Format : UTF-8
Codec ID : S_TEXT/UTF8
Codec ID/Info : UTF-8 Plain Text
Duration : 1 h 13 min
Bit rate : 53 b/s
Count of elements : 886
Stream size : 29.0 KiB (0%)
Title : German [Full]
Language : German
Default : No
Forced : No

Text #6
ID : 8
Format : UTF-8
Codec ID : S_TEXT/UTF8
Codec ID/Info : UTF-8 Plain Text
Duration : 1 h 13 min
Bit rate : 61 b/s
Count of elements : 914
Stream size : 33.2 KiB (0%)
Title : Italian [Full]
Language : Italian
Default : No
Forced : No

Text #7
ID : 9
Format : UTF-8
Codec ID : S_TEXT/UTF8
Codec ID/Info : UTF-8 Plain Text
Duration : 1 h 13 min
Bit rate : 57 b/s
Count of elements : 886
Stream size : 31.4 KiB (0%)
Title : Portuguese [Full]
Language : Portuguese
Default : No
Forced : No

Text #8
ID : 10
Format : UTF-8
Codec ID : S_TEXT/UTF8
Codec ID/Info : UTF-8 Plain Text
Duration : 1 h 13 min
Bit rate : 58 b/s
Count of elements : 888
Stream size : 31.9 KiB (0%)
Title : Brazilian Portuguese [Full]
Language : Portuguese
Default : No
Forced : No

Text #9
ID : 11
Format : UTF-8
Codec ID : S_TEXT/UTF8
Codec ID/Info : UTF-8 Plain Text
Duration : 1 h 13 min
Bit rate : 49 b/s
Count of elements : 887
Stream size : 26.7 KiB (0%)
Title : Polish [Full]
Language : Polish
Default : No
Forced : No

Text #10
ID : 12
Format : UTF-8
Codec ID : S_TEXT/UTF8
Codec ID/Info : UTF-8 Plain Text
Duration : 1 h 13 min
Bit rate : 72 b/s
Count of elements : 1074
Stream size : 38.8 KiB (0%)
Title : Turkish [SDH]
Language : Turkish
Default : No
Forced : No

Text #11
ID : 13
Format : UTF-8
Codec ID : S_TEXT/UTF8
Codec ID/Info : UTF-8 Plain Text
Duration : 1 h 13 min
Bit rate : 53 b/s
Count of elements : 887
Stream size : 29.2 KiB (0%)
Title : Swedish [Full]
Language : Swedish
Default : No
Forced : No

Text #12
ID : 14
Format : UTF-8
Codec ID : S_TEXT/UTF8
Codec ID/Info : UTF-8 Plain Text
Duration : 1 h 13 min
Bit rate : 54 b/s
Count of elements : 888
Stream size : 29.8 KiB (0%)
Title : Danish [Full]
Language : Danish
Default : No
Forced : No

Text #13
ID : 15
Format : UTF-8
Codec ID : S_TEXT/UTF8
Codec ID/Info : UTF-8 Plain Text
Duration : 1 h 13 min
Bit rate : 48 b/s
Count of elements : 877
Stream size : 26.3 KiB (0%)
Title : Finnish [Full]
Language : Finnish
Default : No
Forced : No

Text #14
ID : 16
Format : UTF-8
Codec ID : S_TEXT/UTF8
Codec ID/Info : UTF-8 Plain Text
Duration : 1 h 12 min
Bit rate : 50 b/s
Count of elements : 811
Stream size : 27.0 KiB (0%)
Title : Dutch [Full]
Language : Dutch
Default : No
Forced : No

Text #15
ID : 17
Format : UTF-8
Codec ID : S_TEXT/UTF8
Codec ID/Info : UTF-8 Plain Text
Duration : 1 h 13 min
Bit rate : 56 b/s
Count of elements : 886
Stream size : 30.6 KiB (0%)
Title : Norwegian [Full]
Language : Norwegian
Default : No
Forced : No

Text #16
ID : 18
Format : UTF-8
Codec ID : S_TEXT/UTF8
Codec ID/Info : UTF-8 Plain Text
Duration : 1 h 13 min
Bit rate : 89 b/s
Count of elements : 875
Stream size : 48.4 KiB (0%)
Title : Russian [Full]
Language : Russian
Default : No
Forced : No

Text #17
ID : 19
Format : UTF-8
Codec ID : S_TEXT/UTF8
Codec ID/Info : UTF-8 Plain Text
Duration : 1 h 13 min
Bit rate : 94 b/s
Count of elements : 888
Stream size : 51.3 KiB (0%)
Title : Greek [Full]
Language : Greek
Default : No
Forced : No

Text #18
ID : 20
Format : UTF-8
Codec ID : S_TEXT/UTF8
Codec ID/Info : UTF-8 Plain Text
Duration : 1 h 13 min
Bit rate : 84 b/s
Count of elements : 888
Stream size : 45.9 KiB (0%)
Title : Hebrew [Full]
Language : Hebrew
Default : No
Forced : No

Text #19
ID : 21
Format : UTF-8
Codec ID : S_TEXT/UTF8
Codec ID/Info : UTF-8 Plain Text
Duration : 1 h 13 min
Bit rate : 96 b/s
Count of elements : 888
Stream size : 52.2 KiB (0%)
Title : Arabic [Full]
Language : Arabic
Default : No
Forced : No

Text #20
ID : 22
Format : UTF-8
Codec ID : S_TEXT/UTF8
Codec ID/Info : UTF-8 Plain Text
Duration : 1 h 13 min
Bit rate : 65 b/s
Count of elements : 885
Stream size : 35.7 KiB (0%)
Title : Romanian [Full]
Language : Romanian
Default : No
Forced : No

Text #21
ID : 23
Format : UTF-8
Codec ID : S_TEXT/UTF8
Codec ID/Info : UTF-8 Plain Text
Duration : 1 h 13 min
Bit rate : 55 b/s
Count of elements : 880
Stream size : 30.0 KiB (0%)
Title : Indonesian [Full]
Language : Indonesian
Default : No
Forced : No

Text #22
ID : 24
Format : UTF-8
Codec ID : S_TEXT/UTF8
Codec ID/Info : UTF-8 Plain Text
Duration : 1 h 13 min
Bit rate : 171 b/s
Count of elements : 888
Stream size : 92.7 KiB (0%)
Title : Thai [Full]
Language : Thai
Default : No
Forced : No

Text #23
ID : 25
Format : UTF-8
Codec ID : S_TEXT/UTF8
Codec ID/Info : UTF-8 Plain Text
Duration : 1 h 13 min
Bit rate : 69 b/s
Count of elements : 888
Stream size : 37.7 KiB (0%)
Title : Korean [Full]
Language : Korean
Default : No
Forced : No

Text #24
ID : 26
Format : UTF-8
Codec ID : S_TEXT/UTF8
Codec ID/Info : UTF-8 Plain Text
Duration : 1 h 13 min
Bit rate : 60 b/s
Count of elements : 888
Stream size : 33.0 KiB (0%)
Title : Chinese (Simplified) [Full]
Language : Chinese
Default : No
Forced : No

Text #25
ID : 27
Format : UTF-8
Codec ID : S_TEXT/UTF8
Codec ID/Info : UTF-8 Plain Text
Duration : 1 h 13 min
Bit rate : 62 b/s
Count of elements : 887
Stream size : 33.7 KiB (0%)
Title : Chinese (Traditional) [Full]
Language : Chinese
Default : No
Forced : No

Text #26
ID : 28
Format : UTF-8
Codec ID : S_TEXT/UTF8
Codec ID/Info : UTF-8 Plain Text
Duration : 1 h 13 min
Bit rate : 52 b/s
Count of elements : 917
Stream size : 28.3 KiB (0%)
Title : Japanese [Full]
Language : Japanese
Default : No
Forced : No




1 个附件 售价 大小 下载 时间

Wolf.aka.Boru.S01.TURKISH.1080p.NF.WEBRip.DDP5.1.x264-MZABI[btbtt.me].torrent 0 金币 96.21K 6112 次 9月前

#1楼
发帖时间:2019-01-07 22:52:50   |   回复数:6
911degrees
隐世仙人♂
非常感谢,谢谢分享
9月前 #2楼
wuya2004
武林盟主
感谢楼主分享!!!
3月前 #3楼
重型坦克
一派掌门
谢谢分享
3月前 #4楼
chulps
一代宗师
ddd
3月前 #5楼
linbr
武林高手
大学里最关心
3月前 #6楼
linbr
武林高手
多谢楼主分享
3月前 #7楼
游客组