呆呆狐狸
超级版主

[合 集] [英国] [喜剧] [打包] [BT下载][布兰丁斯城堡 Blandings 第一至二季][全02季打包][英语英字][MKV][1080P][片源]

-->

◎译  名 布兰丁斯城堡 / 布兰丁斯城堡

◎片  名 Blandings

◎年  代 2013

◎产  地 英国

◎类  别 喜剧 / 古装

◎语  言 英语

◎上映日期 2013-01-14(英国)

◎IMDb评分 7.0/10 from 834 users

◎IMDb链接 http://www.imdb.com/title/tt2211457

◎豆瓣评分 7.2/10 from 470 users

◎豆瓣链接 https://movie.douban.com/subject/10741020/

◎BT之家整理 http://www.btbtt.us/

◎片  长 30分钟

◎导  演 Paul Seed

◎编  剧 P.G. Wodehouse / 盖·安德鲁斯 Guy Andrews

◎主  演 蒂莫西·斯波 Timothy Spall

      珍妮弗·桑德斯 Jennifer Saunders

      大卫·威廉姆斯 David Walliams

      马克·威廉姆斯 Mark Williams

      杰克·法辛 Jack Farthing




◎简  介  


  “我们当初被放逐出的,就是布兰丁斯城堡的花园。”——伊夫林·沃

欢迎来到二战前的英国小镇布兰丁斯集市,小镇临近美丽的布兰丁斯山谷,湖光山色间坐落着布兰丁斯城堡,一座历史悠久的大庄园。如果你已经迷路,并接受了草地上一头猪的庄重致意,恭喜你和庄园主艾姆斯华斯伯爵调到了同一波长,住下来度个假吧!不过看这一家的混乱程度,伯爵的小日子就快没法过了……

《布兰丁斯城堡》系列小说是英国作家P.G.伍德豪斯笔下世界的一部分,发表于1915至1975年。伍德豪斯多次被誉为莎士比亚之后最出色的幽默作家,但这也使他的作品难以搬上荧幕。看过《万能管家》(Jeeves & Wooster)的观众可能还记得他的风格,黄金般的二三十年代,千奇百怪的角色闹出各种笑话,轻松灵动,不虐不渣,刚欢度了圣诞节的你,不来破烂熊用一杯下午茶吗?


Video
ID : 1
Format : AVC
Format/Info : Advanced Video Codec
Format profile : High@L4
Format settings : CABAC / 4 Ref Frames
Format settings, CABAC : Yes
Format settings, ReFrames : 4 frames
Codec ID : V_MPEG4/ISO/AVC
Duration : 29 min 6 s
Bit rate : 9 980 kb/s
Width : 1 920 pixels
Height : 1 080 pixels
Display aspect ratio : 16:9
Frame rate mode : Constant
Frame rate : 25.000 FPS
Color space : YUV
Chroma subsampling : 4:2:0
Bit depth : 8 bits
Scan type : Progressive
Bits/(Pixel*Frame) : 0.193
Stream size : 2.03 GiB (98%)
Default : Yes
Forced : No
Color range : Limited
Color primaries : BT.709
Transfer characteristics : BT.709
Matrix coefficients : BT.709

Audio
ID : 2
Format : E-AC-3
Format/Info : Enhanced AC-3
Commercial name : Dolby Digital Plus
Codec ID : A_EAC3
Duration : 29 min 6 s
Bit rate mode : Constant
Bit rate : 224 kb/s
Channel(s) : 2 channels
Channel layout : L R
Sampling rate : 48.0 kHz
Frame rate : 31.250 FPS (1536 SPF)
Compression mode : Lossy
Stream size : 46.6 MiB (2%)
Title : English
Language : English
Service kind : Complete Main
Default : Yes
Forced : No

Text
ID : 3
Format : UTF-8
Codec ID : S_TEXT/UTF8
Codec ID/Info : UTF-8 Plain Text
Duration : 28 min 33 s
Bit rate : 73 b/s
Count of elements : 569
Stream size : 15.3 KiB (0%)
Title : English [SDH]
Language : English
Default : No
Forced : No



2 个附件 售价 大小 下载 时间

Blandings.S01.1080p.AMZN.WEBRip.DDP2.0.x264-MZABI[btbtt.me].torrent 0 金币 75.69K 455 次 5天前

Blandings.S02.1080p.AMZN.WEBRip.DDP2.0.x264-MZABI[btbtt.me].torrent 0 金币 69.65K 266 次 5天前

#1楼
发帖时间:2018-12-07 22:27:50   |   回复数:2
911degrees
隐世仙人♂
非常感谢,谢谢分享
4天前 #2楼
chulps
一代宗师
~ 感谢分享 ~ 感谢 ~
4天前 #3楼
游客组