呆呆狐狸
超级版主

[2013] [美国] [犯罪] [打包] [BT下载][尘封旧案/Case Histories 第二季][全03集打包][英语英字][MKV][1080P][片源]

-->

◎译  名 尘封旧案 第二季

◎片  名 Case Histories Season 2

◎年  代 2013

◎产  地 英国

◎类  别 悬疑

◎语  言 英语

◎上映日期 2013-05-19

◎IMDb评分 7.5/10 from 109 users

◎IMDb链接 http://www.imdb.com/title/tt2891992

◎豆瓣评分 7.5/10 from 185 users

◎豆瓣链接 https://movie.douban.com/subject/24714617/

◎BT之家整理 http://www.btbtt.us/

◎集  数 3

◎片  长 90分钟

◎导  演 Keith Boak

◎编  剧 彼得·哈尼斯 Peter Harness

◎主  演 詹森·艾萨克 Jason Isaacs

      阿曼达·阿宾顿 Amanda Abbington

      扎威·阿什顿 Zawe Ashton

      维多利亚·伍德 Victoria Wood

      艾玛·汉密尔顿 Emma Hamilton

      卡瑞·刘易斯 Gary Lewis



◎简  介  


  在现代风光下的爱丁堡讲述了Kate Atkinson的悬疑小说里的谜案和男主角Jackson Brodie的挣扎。

私家侦探Jackson Brodie(Jason Isaacs饰演)参过军也是前任警察,表面刚强但心思缜密。他年幼的时候失去了姐姐,而一直以来为他未曾停止追寻姐姐死去的真相;因此他总是很难拒绝一些失去亲人的人们的求助。他接手了三宗案件,而这些案件都颇有年月,他要走向真相,首先要在黑暗里游走,受害人家庭里暗藏多年的秘密,和一些不为人知的利害关系都要被他一一揭穿。


Video
ID : 1
Format : AVC
Format/Info : Advanced Video Codec
Format profile : High@L4
Format settings : CABAC / 4 Ref Frames
Format settings, CABAC : Yes
Format settings, ReFrames : 4 frames
Codec ID : V_MPEG4/ISO/AVC
Duration : 1 h 27 min
Bit rate : 13.4 Mb/s
Width : 1 920 pixels
Height : 1 080 pixels
Display aspect ratio : 16:9
Frame rate mode : Constant
Frame rate : 25.000 FPS
Color space : YUV
Chroma subsampling : 4:2:0
Bit depth : 8 bits
Scan type : Progressive
Bits/(Pixel*Frame) : 0.259
Stream size : 8.19 GiB (98%)
Default : Yes
Forced : No
Color range : Limited
Color primaries : BT.709
Transfer characteristics : BT.709
Matrix coefficients : BT.709

Audio
ID : 2
Format : E-AC-3
Format/Info : Enhanced AC-3
Commercial name : Dolby Digital Plus
Codec ID : A_EAC3
Duration : 1 h 27 min
Bit rate mode : Constant
Bit rate : 224 kb/s
Channel(s) : 2 channels
Channel layout : L R
Sampling rate : 48.0 kHz
Frame rate : 31.250 FPS (1536 SPF)
Compression mode : Lossy
Stream size : 140 MiB (2%)
Title : English
Language : English
Service kind : Complete Main
Default : Yes
Forced : No

Text
ID : 3
Format : UTF-8
Codec ID : S_TEXT/UTF8
Codec ID/Info : UTF-8 Plain Text
Duration : 1 h 27 min
Bit rate : 72 b/s
Count of elements : 1630
Stream size : 46.5 KiB (0%)
Title : English [SDH]
Language : English
Default : No
Forced : No



1 个附件 售价 大小 下载 时间

Case.Histories.S02.1080p.AMZN.WEBRip.DDP2.0.x264-MZABI[btbtt.me].torrent 0 金币 58.95K 217 次 9天前

#1楼
发帖时间:2018-12-07 22:24:04   |   回复数:1
911degrees
隐世仙人♂
非常感谢,谢谢分享
8天前 #2楼
游客组