呆呆狐狸
超级版主

[2018] [美国] [真人] [打包] [BT下载][死亡魔术巡礼 Death by Magic 第一季][全08集打包][英语中字][MKV][720P/1080P][片源]

-->

注:Netflix版片源 内含官方中字  更多字幕详见下面参数列表

◎译  名 死亡魔术巡礼 / 死亡戏法

◎片  名 Death by Magic

◎年  代 2018

◎产  地 美国

◎类  别 真人秀

◎语  言 英语

◎上映日期 2018-11-30(美国)

◎IMDb评分 6.5/10 from 91 users

◎IMDb链接 http://www.imdb.com/title/tt8887956

◎BT之家整理 http://www.btbtt.us/

◎集  数 8

◎片  长 35

◎主  演 Drummond Money-Coutts



◎标  签 RealityTV&TalkShow&Variety-US


◎简  介  


  Magician Drummond Money-Coutts travels the globe, sharing his infectious love of his craft and attempting feats that proved fatal to other magicians.


Video
ID : 1
Format : AVC
Format/Info : Advanced Video Codec
Format profile : Main@L3.1
Format settings : CABAC / 3 Ref Frames
Format settings, CABAC : Yes
Format settings, ReFrames : 3 frames
Codec ID : V_MPEG4/ISO/AVC
Duration : 32 min 14 s
Bit rate mode : Variable
Bit rate : 4 420 kb/s
Maximum bit rate : 6 630 kb/s
Width : 1 280 pixels
Height : 720 pixels
Display aspect ratio : 16:9
Frame rate mode : Constant
Frame rate : 23.976 (24000/1001) FPS
Color space : YUV
Chroma subsampling : 4:2:0
Bit depth : 8 bits
Scan type : Progressive
Bits/(Pixel*Frame) : 0.200
Stream size : 1 004 MiB (87%)
Writing library : x264 core 148 r2715 7e75228
Encoding settings : cabac=1 / ref=3 / deblock=1:0:0 / analyse=0x1:0x111 / me=umh / subme=10 / psy=1 / psy_rd=1.00:0.00 / mixed_ref=1 / me_range=24 / chroma_me=1 / trellis=2 / 8x8dct=0 / cqm=0 / deadzone=21,11 / fast_pskip=1 / chroma_qp_offset=-2 / threads=8 / lookahead_threads=1 / sliced_threads=0 / nr=0 / decimate=1 / interlaced=0 / bluray_compat=0 / stitchable=1 / constrained_intra=0 / bframes=2 / b_pyramid=0 / b_adapt=2 / b_bias=0 / direct=3 / weightb=1 / open_gop=0 / weightp=2 / keyint=48 / keyint_min=25 / scenecut=0 / intra_refresh=0 / rc_lookahead=48 / rc=2pass / mbtree=1 / bitrate=4420 / ratetol=1.0 / qcomp=0.50 / qpmin=6 / qpmax=51 / qpstep=4 / cplxblur=20.0 / qblur=0.5 / vbv_maxrate=6630 / vbv_bufsize=8840 / nal_hrd=vbr / filler=0 / ip_ratio=1.40 / aq=1:1.00
Default : Yes
Forced : No

Audio
ID : 2
Format : E-AC-3
Format/Info : Enhanced AC-3
Commercial name : Dolby Digital Plus
Codec ID : A_EAC3
Duration : 32 min 14 s
Bit rate mode : Constant
Bit rate : 640 kb/s
Channel(s) : 6 channels
Channel layout : L R C LFE Ls Rs
Sampling rate : 48.0 kHz
Frame rate : 31.250 FPS (1536 SPF)
Compression mode : Lossy
Stream size : 148 MiB (13%)
Title : English
Language : English
Service kind : Complete Main
Default : Yes
Forced : No

Text #1
ID : 3
Format : UTF-8
Codec ID : S_TEXT/UTF8
Codec ID/Info : UTF-8 Plain Text
Duration : 2 s 461 ms
Bit rate : 58 b/s
Count of elements : 1
Stream size : 18.0 Bytes (0%)
Title : Forced
Language : English
Default : Yes
Forced : Yes

Text #2
ID : 4
Format : UTF-8
Codec ID : S_TEXT/UTF8
Codec ID/Info : UTF-8 Plain Text
Duration : 30 min 54 s
Bit rate : 80 b/s
Count of elements : 455
Stream size : 18.1 KiB (0%)
Title : SDH
Language : English
Default : No
Forced : No

Text #3
ID : 5
Format : UTF-8
Codec ID : S_TEXT/UTF8
Codec ID/Info : UTF-8 Plain Text
Duration : 31 min 8 s
Bit rate : 129 b/s
Count of elements : 514
Stream size : 29.6 KiB (0%)
Language : Arabic
Default : No
Forced : No

Text #4
ID : 6
Format : UTF-8
Codec ID : S_TEXT/UTF8
Codec ID/Info : UTF-8 Plain Text
Duration : 31 min 8 s
Bit rate : 65 b/s
Count of elements : 475
Stream size : 15.0 KiB (0%)
Language : Danish
Default : No
Forced : No

Text #5
ID : 7
Format : UTF-8
Codec ID : S_TEXT/UTF8
Codec ID/Info : UTF-8 Plain Text
Duration : 31 min 8 s
Bit rate : 73 b/s
Count of elements : 467
Stream size : 16.7 KiB (0%)
Language : German
Default : No
Forced : No

Text #6
ID : 8
Format : UTF-8
Codec ID : S_TEXT/UTF8
Codec ID/Info : UTF-8 Plain Text
Duration : 31 min 8 s
Bit rate : 119 b/s
Count of elements : 504
Stream size : 27.2 KiB (0%)
Language : Greek
Default : No
Forced : No

Text #7
ID : 9
Format : UTF-8
Codec ID : S_TEXT/UTF8
Codec ID/Info : UTF-8 Plain Text
Duration : 31 min 8 s
Bit rate : 72 b/s
Count of elements : 491
Stream size : 16.5 KiB (0%)
Language : Spanish
Default : No
Forced : No

Text #8
ID : 10
Format : UTF-8
Codec ID : S_TEXT/UTF8
Codec ID/Info : UTF-8 Plain Text
Duration : 31 min 8 s
Bit rate : 75 b/s
Count of elements : 509
Stream size : 17.2 KiB (0%)
Title : European
Language : Spanish
Default : No
Forced : No

Text #9
ID : 11
Format : UTF-8
Codec ID : S_TEXT/UTF8
Codec ID/Info : UTF-8 Plain Text
Duration : 31 min 8 s
Bit rate : 66 b/s
Count of elements : 456
Stream size : 15.1 KiB (0%)
Language : Finnish
Default : No
Forced : No

Text #10
ID : 12
Format : UTF-8
Codec ID : S_TEXT/UTF8
Codec ID/Info : UTF-8 Plain Text
Duration : 31 min 8 s
Bit rate : 67 b/s
Count of elements : 510
Stream size : 15.5 KiB (0%)
Language : French
Default : No
Forced : No

Text #11
ID : 13
Format : UTF-8
Codec ID : S_TEXT/UTF8
Codec ID/Info : UTF-8 Plain Text
Duration : 31 min 8 s
Bit rate : 111 b/s
Count of elements : 508
Stream size : 25.3 KiB (0%)
Language : Hebrew
Default : No
Forced : No

Text #12
ID : 14
Format : UTF-8
Codec ID : S_TEXT/UTF8
Codec ID/Info : UTF-8 Plain Text
Duration : 31 min 8 s
Bit rate : 67 b/s
Count of elements : 509
Stream size : 15.4 KiB (0%)
Language : Indonesian
Default : No
Forced : No

Text #13
ID : 15
Format : UTF-8
Codec ID : S_TEXT/UTF8
Codec ID/Info : UTF-8 Plain Text
Duration : 31 min 8 s
Bit rate : 71 b/s
Count of elements : 509
Stream size : 16.3 KiB (0%)
Language : Italian
Default : No
Forced : No

Text #14
ID : 16
Format : UTF-8
Codec ID : S_TEXT/UTF8
Codec ID/Info : UTF-8 Plain Text
Duration : 31 min 8 s
Bit rate : 47 b/s
Count of elements : 516
Stream size : 10.8 KiB (0%)
Language : Japanese
Default : No
Forced : No

Text #15
ID : 17
Format : UTF-8
Codec ID : S_TEXT/UTF8
Codec ID/Info : UTF-8 Plain Text
Duration : 31 min 8 s
Bit rate : 75 b/s
Count of elements : 513
Stream size : 17.3 KiB (0%)
Language : Korean
Default : No
Forced : No

Text #16
ID : 18
Format : UTF-8
Codec ID : S_TEXT/UTF8
Codec ID/Info : UTF-8 Plain Text
Duration : 31 min 8 s
Bit rate : 64 b/s
Count of elements : 510
Stream size : 14.6 KiB (0%)
Language : Norwegian Bokmal
Default : No
Forced : No

Text #17
ID : 19
Format : UTF-8
Codec ID : S_TEXT/UTF8
Codec ID/Info : UTF-8 Plain Text
Duration : 31 min 8 s
Bit rate : 59 b/s
Count of elements : 441
Stream size : 13.6 KiB (0%)
Language : Dutch
Default : No
Forced : No

Text #18
ID : 20
Format : UTF-8
Codec ID : S_TEXT/UTF8
Codec ID/Info : UTF-8 Plain Text
Duration : 31 min 8 s
Bit rate : 72 b/s
Count of elements : 509
Stream size : 16.5 KiB (0%)
Language : Polish
Default : No
Forced : No

Text #19
ID : 21
Format : UTF-8
Codec ID : S_TEXT/UTF8
Codec ID/Info : UTF-8 Plain Text
Duration : 31 min 8 s
Bit rate : 75 b/s
Count of elements : 511
Stream size : 17.2 KiB (0%)
Language : Portuguese
Default : No
Forced : No

Text #20
ID : 22
Format : UTF-8
Codec ID : S_TEXT/UTF8
Codec ID/Info : UTF-8 Plain Text
Duration : 31 min 8 s
Bit rate : 66 b/s
Count of elements : 490
Stream size : 15.2 KiB (0%)
Title : Brazilian
Language : Portuguese
Default : No
Forced : No

Text #21
ID : 23
Format : UTF-8
Codec ID : S_TEXT/UTF8
Codec ID/Info : UTF-8 Plain Text
Duration : 31 min 8 s
Bit rate : 73 b/s
Count of elements : 503
Stream size : 16.7 KiB (0%)
Language : Romanian
Default : No
Forced : No

Text #22
ID : 24
Format : UTF-8
Codec ID : S_TEXT/UTF8
Codec ID/Info : UTF-8 Plain Text
Duration : 31 min 8 s
Bit rate : 109 b/s
Count of elements : 509
Stream size : 25.0 KiB (0%)
Language : Russian
Default : No
Forced : No

Text #23
ID : 25
Format : UTF-8
Codec ID : S_TEXT/UTF8
Codec ID/Info : UTF-8 Plain Text
Duration : 31 min 8 s
Bit rate : 65 b/s
Count of elements : 449
Stream size : 15.0 KiB (0%)
Language : Swedish
Default : No
Forced : No

Text #24
ID : 26
Format : UTF-8
Codec ID : S_TEXT/UTF8
Codec ID/Info : UTF-8 Plain Text
Duration : 31 min 8 s
Bit rate : 171 b/s
Count of elements : 510
Stream size : 39.0 KiB (0%)
Language : Thai
Default : No
Forced : No

Text #25
ID : 27
Format : UTF-8
Codec ID : S_TEXT/UTF8
Codec ID/Info : UTF-8 Plain Text
Duration : 31 min 8 s
Bit rate : 67 b/s
Count of elements : 503
Stream size : 15.5 KiB (0%)
Language : Turkish
Default : No
Forced : No

Text #26
ID : 28
Format : UTF-8
Codec ID : S_TEXT/UTF8
Codec ID/Info : UTF-8 Plain Text
Duration : 31 min 8 s
Bit rate : 59 b/s
Count of elements : 513
Stream size : 13.5 KiB (0%)
Title : Simplified
Language : Chinese
Default : No
Forced : No

Text #27
ID : 29
Format : UTF-8
Codec ID : S_TEXT/UTF8
Codec ID/Info : UTF-8 Plain Text
Duration : 31 min 8 s
Bit rate : 66 b/s
Count of elements : 507
Stream size : 15.3 KiB (0%)
Title : Traditional
Language : Chinese
Default : No
Forced : No



2 个附件 售价 大小 下载 时间

Death.by.Magic.S01.720p.NF.WEBRip.DDP5.1.x264-AJP69[btbtt.me].torrent 0 金币 71.80K 644 次 9天前

Death.by.Magic.S01.1080p.NF.WEBRip.DDP5.1.x264-AJP69[btbtt.me].torrent 0 金币 62.95K 623 次 9天前

#1楼
发帖时间:2018-12-07 22:20:48   |   回复数:2
911degrees
隐世仙人♂
非常感谢,谢谢分享
8天前 #2楼
chulps
一代宗师
~ 感谢分享 ~ 感谢 ~
8天前 #3楼
游客组