呆呆狐狸
超级版主

[2013] [美国] [真人] [打包] [BT下载][料理擂台 Food Fighters 第一季][全10集打包][英语无字][MKV][720P][片源]

-->

◎译  名 料理擂台 第一季

◎片  名 Food Fighters Season 1

◎年  代 2013

◎产  地 美国

◎语  言 英语

◎IMDb评分 4.4/10 from 195 users

◎IMDb链接 http://www.imdb.com/title/tt2805912

◎BT之家整理 http://www.btbtt.us/

◎集  数 08

◎片  长 42分钟

◎主  演 Adam Richman



◎标  签 美食


◎简  介  


  探索频道的一个美食真人秀节目,每集都有一个家庭厨师对阵五个专业厨师,家庭厨师选出自己最有信心的五个食谱进行参赛,根据对手大厨的履历,选出最适合的菜谱进行对决,以避开他们最擅长的烹饪领域来尽量提高赢面,五个大厨轮番上阵,和家庭厨师煮同一个食谱(但并不严格,大厨们经常会随意改动食谱,例如曲奇配牛奶,没有限定曲奇怎么制作,看上去像个饼干就行),同一集里越后面出场的厨师,在业界的声誉就越高,做出来的菜式交由五位普通美国民众进行投票评选


Video
ID : 1
Format : AVC
Format/Info : Advanced Video Codec
Format profile : Main@L3.1
Format settings : 2 Ref Frames
Format settings, CABAC : No
Format settings, ReFrames : 2 frames
Codec ID : V_MPEG4/ISO/AVC
Duration : 42 min 28 s
Bit rate : 4 204 kb/s
Width : 960 pixels
Height : 720 pixels
Display aspect ratio : 16:9
Frame rate mode : Constant
Frame rate : 29.970 (29970/1000) FPS
Color space : YUV
Chroma subsampling : 4:2:0
Bit depth : 8 bits
Scan type : Progressive
Bits/(Pixel*Frame) : 0.203
Stream size : 1.25 GiB (90%)
Language : English
Default : Yes
Forced : No
Color range : Limited
Color primaries : BT.709
Transfer characteristics : BT.709
Matrix coefficients : BT.709

Audio
ID : 2
Format : AC-3
Format/Info : Audio Coding 3
Commercial name : Dolby Digital
Codec ID : A_AC3
Duration : 42 min 28 s
Bit rate mode : Constant
Bit rate : 384 kb/s
Channel(s) : 6 channels
Channel layout : L R C LFE Ls Rs
Sampling rate : 48.0 kHz
Frame rate : 31.250 FPS (1536 SPF)
Bit depth : 16 bits
Compression mode : Lossy
Stream size : 117 MiB (8%)
Language : English
Service kind : Complete Main
Default : Yes
Forced : No

Text
ID : 3
Format : UTF-8
Codec ID : S_TEXT/UTF8
Codec ID/Info : UTF-8 Plain Text
Language : English
Default : Yes
Forced : No



1 个附件 售价 大小 下载 时间

Food.Fighters.S01.720p.WEB-DL.DD5.1.H264-Juggalotus[btbtt.me].torrent 0 金币 54.74K 175 次 9天前

#1楼
发帖时间:2018-12-07 22:13:45   |   回复数:1
911degrees
隐世仙人♂
非常感谢,谢谢分享
8天前 #2楼
游客组