呆呆狐狸
超级版主

[合 集] [美国] [剧情] [打包] [BT下载][幸运狗 Lucky Dog 第一至二季][全02季打包][英语无字][MKV][720P/1080P][片源]

-->

◎译  名 幸运狗

◎片  名 lucky dog

◎年  代 2014

◎产  地 美国

◎类  别 家庭

◎上映日期 2014-09-26(美国)

◎IMDb评分 8.3/10 from 117 users

◎IMDb链接 http://www.imdb.com/title/tt3220976

◎BT之家整理 http://www.btbtt.us/

◎片  长 30min

◎主  演 Brandon McMillan



◎简  介  


  Brandon trains dogs to the point where they can find forever homes.



Video
ID : 1
Format : AVC
Format/Info : Advanced Video Codec
Format profile : High@L3.1
Format settings : CABAC / 5 Ref Frames
Format settings, CABAC : Yes
Format settings, ReFrames : 5 frames
Codec ID : V_MPEG4/ISO/AVC
Duration : 21 min 37 s
Bit rate : 3 935 kb/s
Width : 1 280 pixels
Height : 720 pixels
Display aspect ratio : 16:9
Frame rate mode : Constant
Frame rate : 29.970 (30000/1001) FPS
Color space : YUV
Chroma subsampling : 4:2:0
Bit depth : 8 bits
Scan type : Progressive
Bits/(Pixel*Frame) : 0.142
Stream size : 609 MiB (95%)
Default : Yes
Forced : No
Color range : Limited
Color primaries : BT.709
Transfer characteristics : BT.709
Matrix coefficients : BT.709

Audio
ID : 2
Format : E-AC-3
Format/Info : Enhanced AC-3
Commercial name : Dolby Digital Plus
Codec ID : A_EAC3
Duration : 21 min 37 s
Bit rate mode : Constant
Bit rate : 224 kb/s
Channel(s) : 2 channels
Channel layout : L R
Sampling rate : 48.0 kHz
Frame rate : 31.250 FPS (1536 SPF)
Compression mode : Lossy
Stream size : 34.6 MiB (5%)
Title : English
Language : English
Service kind : Complete Main
Default : Yes
Forced : No

Text
ID : 3
Format : UTF-8
Codec ID : S_TEXT/UTF8
Codec ID/Info : UTF-8 Plain Text
Duration : 21 min 22 s
Bit rate : 119 b/s
Count of elements : 627
Stream size : 18.7 KiB (0%)
Title : English [SDH]
Language : English
Default : No
Forced : No




3 个附件 售价 大小 下载 时间

Lucky.Dog.S01.720p.AMZN.WEBRip.DDP2.0.x264-MZABI[btbtt.me].torrent 0 金币 74.22K 70 次 5天前

Lucky.Dog.S02.720p.AMZN.WEBRip.DDP2.0.x264-MZABI[btbtt.me].torrent 0 金币 74.41K 49 次 5天前

Lucky.Dog.S02.1080p.AMZN.WEBRip.DDP2.0.x264-MZABI[btbtt.me].torrent 0 金币 112.17K 42 次 5天前

#1楼
发帖时间:2018-12-07 22:07:37   |   回复数:1
911degrees
隐世仙人♂
非常感谢,谢谢分享
4天前 #2楼
游客组