呆呆狐狸
超级版主

[2017] [加剧] [犯罪] [打包] [BT下载][血仇/坏血 Bad Blood 第一季][全06集打包][英语中字][MKV][1080P][片源]

-->

注:Netflix版片源 内含官方中字  更多字幕详见下面参数列表

◎译  名 血仇 第一季 / 仇怨 / 坏血 / 血债血偿

◎片  名 Bad Blood Season 1

◎年  代 2017

◎产  地 加拿大

◎类  别 剧情 / 传记

◎语  言 英语

◎上映日期 2017-09-22(加拿大)

◎IMDb评分 7.3/10 from 598 users

◎IMDb链接 http://www.imdb.com/title/tt6423364

◎BT之家整理 http://www.btbtt.us/

◎集  数 6

◎片  长 45分钟

◎导  演 西蒙·巴瑞 Simon Barry

◎主  演 金·寇兹 Kim Coates

      安东尼·拉帕格利亚 Anthony LaPaglia

      马克西姆·罗伊 Maxim Roy

      托尼·纳波 Tony Nappo

      布雷特多纳休 Brett Donahue

      恩里克·克兰东尼 Enrico Colantoni

      保罗·索维诺 Paul Sorvino

      Angela Asher

      Valerie Buhagiar




◎简  介  


  加拿大City原创剧集《Bad Blood》根据加拿大最有影响力的黑手党家族唯一幸存的成员、加拿大黑手党教父Vito Rizzuto的生平故事改编,主要素材来源于畅销书《Business or Blood: Mafia Boss Vito Rizzuto’s Last War》。Vito Rizzuto原本是蒙特利尔犯罪世界中的一个另类,他是唯一能让蒙特利尔各大犯罪帮派保持和平的人,也是一个持「首席执行官」身份公开活动的人。1981年,Vito Rizzuto突然遭到逮捕并被关进了戒备森严的科罗拉多超级监狱,罪名是谋杀三名Bonanno家族成员。他只能无助地看着自己兴盛一时的黑手党帝国土崩瓦解,他最亲密的朋友和家人一个接一个被神秘谋杀。2012年10月他从监狱获释后,立刻展开莎士比亚作品式的复仇行动,最终他最亲密的盟友和他自己全都丧了命。该剧的故事元素包括家庭、忠诚、欺骗、权力、贪婪和复仇等


Video
ID : 1
Format : AVC
Format/Info : Advanced Video Codec
Format profile : Main@L4
Format settings : CABAC / 3 Ref Frames
Format settings, CABAC : Yes
Format settings, ReFrames : 3 frames
Codec ID : V_MPEG4/ISO/AVC
Duration : 46 min 59 s
Bit rate mode : Variable
Bit rate : 5 800 kb/s
Maximum bit rate : 8 700 kb/s
Width : 1 920 pixels
Height : 1 080 pixels
Display aspect ratio : 16:9
Frame rate mode : Constant
Frame rate : 23.976 (24000/1001) FPS
Color space : YUV
Chroma subsampling : 4:2:0
Bit depth : 8 bits
Scan type : Progressive
Bits/(Pixel*Frame) : 0.117
Stream size : 1.83 GiB (90%)
Writing library : x264 core 148 r2715 7e75228
Encoding settings : cabac=1 / ref=3 / deblock=1:0:0 / analyse=0x1:0x111 / me=umh / subme=10 / psy=1 / psy_rd=1.00:0.00 / mixed_ref=1 / me_range=24 / chroma_me=1 / trellis=2 / 8x8dct=0 / cqm=0 / deadzone=21,11 / fast_pskip=1 / chroma_qp_offset=-2 / threads=8 / lookahead_threads=1 / sliced_threads=0 / nr=0 / decimate=1 / interlaced=0 / bluray_compat=0 / stitchable=1 / constrained_intra=0 / bframes=2 / b_pyramid=0 / b_adapt=2 / b_bias=0 / direct=3 / weightb=1 / open_gop=0 / weightp=2 / keyint=48 / keyint_min=25 / scenecut=0 / intra_refresh=0 / rc_lookahead=48 / rc=2pass / mbtree=1 / bitrate=5800 / ratetol=1.0 / qcomp=0.50 / qpmin=6 / qpmax=51 / qpstep=4 / cplxblur=20.0 / qblur=0.5 / vbv_maxrate=8700 / vbv_bufsize=11600 / nal_hrd=vbr / filler=0 / ip_ratio=1.40 / aq=1:1.00
Default : Yes
Forced : No

Audio
ID : 2
Format : E-AC-3
Format/Info : Enhanced AC-3
Commercial name : Dolby Digital Plus
Codec ID : A_EAC3
Duration : 46 min 59 s
Bit rate mode : Constant
Bit rate : 640 kb/s
Channel(s) : 6 channels
Channel layout : L R C LFE Ls Rs
Sampling rate : 48.0 kHz
Frame rate : 31.250 FPS (1536 SPF)
Compression mode : Lossy
Stream size : 215 MiB (10%)
Title : English
Language : English
Service kind : Complete Main
Default : Yes
Forced : No

Text #1
ID : 3
Format : UTF-8
Codec ID : S_TEXT/UTF8
Codec ID/Info : UTF-8 Plain Text
Duration : 3 min 29 s
Bit rate : 1 b/s
Count of elements : 2
Stream size : 45.0 Bytes (0%)
Title : Forced
Language : English
Default : Yes
Forced : Yes

Text #2
ID : 4
Format : UTF-8
Codec ID : S_TEXT/UTF8
Codec ID/Info : UTF-8 Plain Text
Duration : 43 min 42 s
Bit rate : 84 b/s
Count of elements : 699
Stream size : 26.9 KiB (0%)
Title : SDH
Language : English
Default : No
Forced : No

Text #3
ID : 5
Format : UTF-8
Codec ID : S_TEXT/UTF8
Codec ID/Info : UTF-8 Plain Text
Duration : 43 min 42 s
Bit rate : 81 b/s
Count of elements : 751
Stream size : 26.1 KiB (0%)
Language : English
Default : No
Forced : No

Text #4
ID : 6
Format : UTF-8
Codec ID : S_TEXT/UTF8
Codec ID/Info : UTF-8 Plain Text
Duration : 43 min 53 s
Bit rate : 135 b/s
Count of elements : 757
Stream size : 43.5 KiB (0%)
Language : Arabic
Default : No
Forced : No

Text #5
ID : 7
Format : UTF-8
Codec ID : S_TEXT/UTF8
Codec ID/Info : UTF-8 Plain Text
Duration : 43 min 53 s
Bit rate : 69 b/s
Count of elements : 648
Stream size : 22.2 KiB (0%)
Language : Danish
Default : No
Forced : No

Text #6
ID : 8
Format : UTF-8
Codec ID : S_TEXT/UTF8
Codec ID/Info : UTF-8 Plain Text
Duration : 43 min 53 s
Bit rate : 80 b/s
Count of elements : 695
Stream size : 26.0 KiB (0%)
Language : German
Default : No
Forced : No

Text #7
ID : 9
Format : UTF-8
Codec ID : S_TEXT/UTF8
Codec ID/Info : UTF-8 Plain Text
Duration : 43 min 53 s
Bit rate : 132 b/s
Count of elements : 721
Stream size : 42.7 KiB (0%)
Language : Greek
Default : No
Forced : No

Text #8
ID : 10
Format : UTF-8
Codec ID : S_TEXT/UTF8
Codec ID/Info : UTF-8 Plain Text
Duration : 43 min 53 s
Bit rate : 75 b/s
Count of elements : 732
Stream size : 24.4 KiB (0%)
Language : Spanish
Default : No
Forced : No

Text #9
ID : 11
Format : UTF-8
Codec ID : S_TEXT/UTF8
Codec ID/Info : UTF-8 Plain Text
Duration : 43 min 53 s
Bit rate : 78 b/s
Count of elements : 768
Stream size : 25.4 KiB (0%)
Title : European
Language : Spanish
Default : No
Forced : No

Text #10
ID : 12
Format : UTF-8
Codec ID : S_TEXT/UTF8
Codec ID/Info : UTF-8 Plain Text
Duration : 43 min 53 s
Bit rate : 72 b/s
Count of elements : 684
Stream size : 23.3 KiB (0%)
Language : Finnish
Default : No
Forced : No

Text #11
ID : 13
Format : UTF-8
Codec ID : S_TEXT/UTF8
Codec ID/Info : UTF-8 Plain Text
Duration : 43 min 53 s
Bit rate : 73 b/s
Count of elements : 743
Stream size : 23.5 KiB (0%)
Language : French
Default : No
Forced : No

Text #12
ID : 14
Format : UTF-8
Codec ID : S_TEXT/UTF8
Codec ID/Info : UTF-8 Plain Text
Duration : 43 min 53 s
Bit rate : 131 b/s
Count of elements : 768
Stream size : 42.4 KiB (0%)
Language : Hebrew
Default : No
Forced : No

Text #13
ID : 15
Format : UTF-8
Codec ID : S_TEXT/UTF8
Codec ID/Info : UTF-8 Plain Text
Duration : 43 min 53 s
Bit rate : 69 b/s
Count of elements : 688
Stream size : 22.5 KiB (0%)
Language : Indonesian
Default : No
Forced : No

Text #14
ID : 16
Format : UTF-8
Codec ID : S_TEXT/UTF8
Codec ID/Info : UTF-8 Plain Text
Duration : 43 min 53 s
Bit rate : 78 b/s
Count of elements : 746
Stream size : 25.3 KiB (0%)
Language : Italian
Default : No
Forced : No

Text #15
ID : 17
Format : UTF-8
Codec ID : S_TEXT/UTF8
Codec ID/Info : UTF-8 Plain Text
Duration : 43 min 53 s
Bit rate : 61 b/s
Count of elements : 794
Stream size : 19.9 KiB (0%)
Language : Japanese
Default : No
Forced : No

Text #16
ID : 18
Format : UTF-8
Codec ID : S_TEXT/UTF8
Codec ID/Info : UTF-8 Plain Text
Duration : 43 min 53 s
Bit rate : 86 b/s
Count of elements : 751
Stream size : 27.7 KiB (0%)
Language : Korean
Default : No
Forced : No

Text #17
ID : 19
Format : UTF-8
Codec ID : S_TEXT/UTF8
Codec ID/Info : UTF-8 Plain Text
Duration : 43 min 53 s
Bit rate : 68 b/s
Count of elements : 692
Stream size : 22.2 KiB (0%)
Language : Norwegian Bokmal
Default : No
Forced : No

Text #18
ID : 20
Format : UTF-8
Codec ID : S_TEXT/UTF8
Codec ID/Info : UTF-8 Plain Text
Duration : 43 min 53 s
Bit rate : 68 b/s
Count of elements : 744
Stream size : 22.0 KiB (0%)
Language : Dutch
Default : No
Forced : No

Text #19
ID : 21
Format : UTF-8
Codec ID : S_TEXT/UTF8
Codec ID/Info : UTF-8 Plain Text
Duration : 43 min 53 s
Bit rate : 64 b/s
Count of elements : 763
Stream size : 20.6 KiB (0%)
Language : Polish
Default : No
Forced : No

Text #20
ID : 22
Format : UTF-8
Codec ID : S_TEXT/UTF8
Codec ID/Info : UTF-8 Plain Text
Duration : 43 min 53 s
Bit rate : 76 b/s
Count of elements : 723
Stream size : 24.6 KiB (0%)
Language : Portuguese
Default : No
Forced : No

Text #21
ID : 23
Format : UTF-8
Codec ID : S_TEXT/UTF8
Codec ID/Info : UTF-8 Plain Text
Duration : 43 min 53 s
Bit rate : 80 b/s
Count of elements : 780
Stream size : 25.9 KiB (0%)
Title : Brazilian
Language : Portuguese
Default : No
Forced : No

Text #22
ID : 24
Format : UTF-8
Codec ID : S_TEXT/UTF8
Codec ID/Info : UTF-8 Plain Text
Duration : 43 min 49 s
Bit rate : 68 b/s
Count of elements : 676
Stream size : 21.9 KiB (0%)
Language : Romanian
Default : No
Forced : No

Text #23
ID : 25
Format : UTF-8
Codec ID : S_TEXT/UTF8
Codec ID/Info : UTF-8 Plain Text
Duration : 43 min 53 s
Bit rate : 122 b/s
Count of elements : 781
Stream size : 39.5 KiB (0%)
Language : Russian
Default : No
Forced : No

Text #24
ID : 26
Format : UTF-8
Codec ID : S_TEXT/UTF8
Codec ID/Info : UTF-8 Plain Text
Duration : 43 min 53 s
Bit rate : 69 b/s
Count of elements : 765
Stream size : 22.3 KiB (0%)
Language : Swedish
Default : No
Forced : No

Text #25
ID : 27
Format : UTF-8
Codec ID : S_TEXT/UTF8
Codec ID/Info : UTF-8 Plain Text
Duration : 43 min 53 s
Bit rate : 201 b/s
Count of elements : 781
Stream size : 64.7 KiB (0%)
Language : Thai
Default : No
Forced : No

Text #26
ID : 28
Format : UTF-8
Codec ID : S_TEXT/UTF8
Codec ID/Info : UTF-8 Plain Text
Duration : 43 min 53 s
Bit rate : 78 b/s
Count of elements : 770
Stream size : 25.2 KiB (0%)
Language : Turkish
Default : No
Forced : No

Text #27
ID : 29
Format : UTF-8
Codec ID : S_TEXT/UTF8
Codec ID/Info : UTF-8 Plain Text
Duration : 43 min 53 s
Bit rate : 69 b/s
Count of elements : 783
Stream size : 22.2 KiB (0%)
Title : Simplified
Language : Chinese
Default : No
Forced : No

Text #28
ID : 30
Format : UTF-8
Codec ID : S_TEXT/UTF8
Codec ID/Info : UTF-8 Plain Text
Duration : 43 min 53 s
Bit rate : 68 b/s
Count of elements : 781
Stream size : 21.9 KiB (0%)
Title : Traditional
Language : Chinese
Default : No
Forced : No



1 个附件 售价 大小 下载 时间

Bad.Blood.2017.S01.1080p.NF.WEBRip.DDP5.1.x264-NTb[btbtt.me].torrent 0 金币 95.37K 1085 次 9天前

#1楼
发帖时间:2018-12-07 21:48:00   |   回复数:1
911degrees
隐世仙人♂
非常感谢,谢谢分享
8天前 #2楼
游客组