呆呆狐狸
超级版主

[2018] [澳剧] [悬疑] [打包] [BT下载][松树谷/Pine Gap 第一季][全06集打包][英语中字][MKV][720P/1080P][片源]

-->

注:Netflix版片源 内含官方中字  更多字幕详见下面参数列表

◎译  名 松树谷

◎片  名 Pine Gap

◎年  代 2018

◎产  地 澳大利亚

◎类  别 剧情 / 悬疑 / 惊悚

◎语  言 英语

◎上映日期 2018-10-14(澳大利亚)

◎IMDb评分 6.8/10 from 307 users

◎IMDb链接 http://www.imdb.com/title/tt7371868

◎BT之家整理 http://www.btbtt.us/

◎集  数 6

◎片  长 60

◎主  演 帕克·索耶 Parker Sawyers

      杰奎琳·麦根斯 Jacqueline McKenzie

      史蒂夫·图森特 Steve Toussaint



◎简  介  


  故事描述位于澳大利亚中部的美澳联合防御基地。在绝密的情报世界中,国家与个人都面临严峻挑战,忠诚度也面临考验,利益冲突、个人理想和一个悲剧性错误导致美国和澳大利亚的军事联盟关系濒临崩溃。


Video
ID : 1
Format : AVC
Format/Info : Advanced Video Codec
Format profile : Main@L4
Format settings : CABAC / 3 Ref Frames
Format settings, CABAC : Yes
Format settings, ReFrames : 3 frames
Codec ID : V_MPEG4/ISO/AVC
Duration : 59 min 10 s
Bit rate mode : Variable
Bit rate : 4 420 kb/s
Maximum bit rate : 6 630 kb/s
Width : 1 920 pixels
Height : 1 080 pixels
Display aspect ratio : 16:9
Frame rate mode : Constant
Frame rate : 25.000 FPS
Color space : YUV
Chroma subsampling : 4:2:0
Bit depth : 8 bits
Scan type : Progressive
Bits/(Pixel*Frame) : 0.085
Stream size : 1.77 GiB (87%)
Writing library : x264 core 148 r2715 7e75228
Encoding settings : cabac=1 / ref=3 / deblock=1:0:0 / analyse=0x1:0x111 / me=umh / subme=10 / psy=1 / psy_rd=1.00:0.00 / mixed_ref=1 / me_range=24 / chroma_me=1 / trellis=2 / 8x8dct=0 / cqm=0 / deadzone=21,11 / fast_pskip=1 / chroma_qp_offset=-2 / threads=8 / lookahead_threads=1 / sliced_threads=0 / nr=0 / decimate=1 / interlaced=0 / bluray_compat=0 / stitchable=1 / constrained_intra=0 / bframes=2 / b_pyramid=0 / b_adapt=2 / b_bias=0 / direct=3 / weightb=1 / open_gop=0 / weightp=2 / keyint=50 / keyint_min=26 / scenecut=0 / intra_refresh=0 / rc_lookahead=50 / rc=2pass / mbtree=1 / bitrate=4420 / ratetol=1.0 / qcomp=0.50 / qpmin=6 / qpmax=51 / qpstep=4 / cplxblur=20.0 / qblur=0.5 / vbv_maxrate=6630 / vbv_bufsize=8840 / nal_hrd=vbr / filler=0 / ip_ratio=1.40 / aq=1:1.00
Default : Yes
Forced : No

Audio
ID : 2
Format : E-AC-3
Format/Info : Enhanced AC-3
Commercial name : Dolby Digital Plus
Codec ID : A_EAC3
Duration : 59 min 10 s
Bit rate mode : Constant
Bit rate : 640 kb/s
Channel(s) : 6 channels
Channel layout : L R C LFE Ls Rs
Sampling rate : 48.0 kHz
Frame rate : 31.250 FPS (1536 SPF)
Compression mode : Lossy
Stream size : 271 MiB (13%)
Title : English
Language : English
Service kind : Complete Main
Default : Yes
Forced : No

Text #1
ID : 3
Format : UTF-8
Codec ID : S_TEXT/UTF8
Codec ID/Info : UTF-8 Plain Text
Duration : 56 min 31 s
Bit rate : 92 b/s
Count of elements : 980
Stream size : 38.2 KiB (0%)
Title : SDH
Language : English
Default : No
Forced : No

Text #2
ID : 4
Format : UTF-8
Codec ID : S_TEXT/UTF8
Codec ID/Info : UTF-8 Plain Text
Duration : 56 min 33 s
Bit rate : 141 b/s
Count of elements : 1047
Stream size : 58.6 KiB (0%)
Language : Arabic
Default : No
Forced : No

Text #3
ID : 5
Format : UTF-8
Codec ID : S_TEXT/UTF8
Codec ID/Info : UTF-8 Plain Text
Duration : 56 min 34 s
Bit rate : 69 b/s
Count of elements : 932
Stream size : 28.7 KiB (0%)
Language : Danish
Default : No
Forced : No

Text #4
ID : 6
Format : UTF-8
Codec ID : S_TEXT/UTF8
Codec ID/Info : UTF-8 Plain Text
Duration : 56 min 33 s
Bit rate : 83 b/s
Count of elements : 996
Stream size : 34.7 KiB (0%)
Language : German
Default : No
Forced : No

Text #5
ID : 7
Format : UTF-8
Codec ID : S_TEXT/UTF8
Codec ID/Info : UTF-8 Plain Text
Duration : 56 min 33 s
Bit rate : 142 b/s
Count of elements : 1049
Stream size : 58.8 KiB (0%)
Language : Greek
Default : No
Forced : No

Text #6
ID : 8
Format : UTF-8
Codec ID : S_TEXT/UTF8
Codec ID/Info : UTF-8 Plain Text
Duration : 56 min 34 s
Bit rate : 88 b/s
Count of elements : 887
Stream size : 36.5 KiB (0%)
Language : Spanish
Default : No
Forced : No

Text #7
ID : 9
Format : UTF-8
Codec ID : S_TEXT/UTF8
Codec ID/Info : UTF-8 Plain Text
Duration : 56 min 34 s
Bit rate : 75 b/s
Count of elements : 962
Stream size : 31.4 KiB (0%)
Title : European
Language : Spanish
Default : No
Forced : No

Text #8
ID : 10
Format : UTF-8
Codec ID : S_TEXT/UTF8
Codec ID/Info : UTF-8 Plain Text
Duration : 56 min 32 s
Bit rate : 78 b/s
Count of elements : 918
Stream size : 32.7 KiB (0%)
Language : Finnish
Default : No
Forced : No

Text #9
ID : 11
Format : UTF-8
Codec ID : S_TEXT/UTF8
Codec ID/Info : UTF-8 Plain Text
Duration : 56 min 33 s
Bit rate : 84 b/s
Count of elements : 963
Stream size : 34.9 KiB (0%)
Language : French
Default : No
Forced : No

Text #10
ID : 12
Format : UTF-8
Codec ID : S_TEXT/UTF8
Codec ID/Info : UTF-8 Plain Text
Duration : 56 min 34 s
Bit rate : 121 b/s
Count of elements : 982
Stream size : 50.5 KiB (0%)
Language : Hebrew
Default : No
Forced : No

Text #11
ID : 13
Format : UTF-8
Codec ID : S_TEXT/UTF8
Codec ID/Info : UTF-8 Plain Text
Duration : 56 min 34 s
Bit rate : 89 b/s
Count of elements : 970
Stream size : 37.1 KiB (0%)
Language : Indonesian
Default : No
Forced : No

Text #12
ID : 14
Format : UTF-8
Codec ID : S_TEXT/UTF8
Codec ID/Info : UTF-8 Plain Text
Duration : 56 min 34 s
Bit rate : 79 b/s
Count of elements : 909
Stream size : 32.8 KiB (0%)
Language : Italian
Default : No
Forced : No

Text #13
ID : 15
Format : UTF-8
Codec ID : S_TEXT/UTF8
Codec ID/Info : UTF-8 Plain Text
Duration : 56 min 33 s
Bit rate : 88 b/s
Count of elements : 1055
Stream size : 36.7 KiB (0%)
Language : Japanese
Default : No
Forced : No

Text #14
ID : 16
Format : UTF-8
Codec ID : S_TEXT/UTF8
Codec ID/Info : UTF-8 Plain Text
Duration : 56 min 34 s
Bit rate : 115 b/s
Count of elements : 1031
Stream size : 47.8 KiB (0%)
Language : Korean
Default : No
Forced : No

Text #15
ID : 17
Format : UTF-8
Codec ID : S_TEXT/UTF8
Codec ID/Info : UTF-8 Plain Text
Duration : 56 min 33 s
Bit rate : 72 b/s
Count of elements : 926
Stream size : 30.0 KiB (0%)
Language : Norwegian Bokmal
Default : No
Forced : No

Text #16
ID : 18
Format : UTF-8
Codec ID : S_TEXT/UTF8
Codec ID/Info : UTF-8 Plain Text
Duration : 56 min 33 s
Bit rate : 80 b/s
Count of elements : 896
Stream size : 33.3 KiB (0%)
Language : Dutch
Default : No
Forced : No

Text #17
ID : 19
Format : UTF-8
Codec ID : S_TEXT/UTF8
Codec ID/Info : UTF-8 Plain Text
Duration : 56 min 34 s
Bit rate : 64 b/s
Count of elements : 874
Stream size : 26.8 KiB (0%)
Language : Polish
Default : No
Forced : No

Text #18
ID : 20
Format : UTF-8
Codec ID : S_TEXT/UTF8
Codec ID/Info : UTF-8 Plain Text
Duration : 56 min 33 s
Bit rate : 87 b/s
Count of elements : 1048
Stream size : 36.3 KiB (0%)
Language : Portuguese
Default : No
Forced : No

Text #19
ID : 21
Format : UTF-8
Codec ID : S_TEXT/UTF8
Codec ID/Info : UTF-8 Plain Text
Duration : 56 min 33 s
Bit rate : 77 b/s
Count of elements : 964
Stream size : 32.2 KiB (0%)
Title : Brazilian
Language : Portuguese
Default : No
Forced : No

Text #20
ID : 22
Format : UTF-8
Codec ID : S_TEXT/UTF8
Codec ID/Info : UTF-8 Plain Text
Duration : 56 min 33 s
Bit rate : 89 b/s
Count of elements : 1022
Stream size : 37.0 KiB (0%)
Language : Romanian
Default : No
Forced : No

Text #21
ID : 23
Format : UTF-8
Codec ID : S_TEXT/UTF8
Codec ID/Info : UTF-8 Plain Text
Duration : 56 min 34 s
Bit rate : 141 b/s
Count of elements : 980
Stream size : 58.6 KiB (0%)
Language : Russian
Default : No
Forced : No

Text #22
ID : 24
Format : UTF-8
Codec ID : S_TEXT/UTF8
Codec ID/Info : UTF-8 Plain Text
Duration : 56 min 34 s
Bit rate : 74 b/s
Count of elements : 750
Stream size : 30.9 KiB (0%)
Language : Swedish
Default : No
Forced : No

Text #23
ID : 25
Format : UTF-8
Codec ID : S_TEXT/UTF8
Codec ID/Info : UTF-8 Plain Text
Duration : 56 min 33 s
Bit rate : 209 b/s
Count of elements : 1021
Stream size : 86.8 KiB (0%)
Language : Thai
Default : No
Forced : No

Text #24
ID : 26
Format : UTF-8
Codec ID : S_TEXT/UTF8
Codec ID/Info : UTF-8 Plain Text
Duration : 56 min 34 s
Bit rate : 82 b/s
Count of elements : 972
Stream size : 34.2 KiB (0%)
Language : Turkish
Default : No
Forced : No

Text #25
ID : 27
Format : UTF-8
Codec ID : S_TEXT/UTF8
Codec ID/Info : UTF-8 Plain Text
Duration : 56 min 33 s
Bit rate : 119 b/s
Count of elements : 1046
Stream size : 49.4 KiB (0%)
Language : Vietnamese
Default : No
Forced : No

Text #26
ID : 28
Format : UTF-8
Codec ID : S_TEXT/UTF8
Codec ID/Info : UTF-8 Plain Text
Duration : 56 min 34 s
Bit rate : 83 b/s
Count of elements : 999
Stream size : 34.4 KiB (0%)
Title : Simplified
Language : Chinese
Default : No
Forced : No

Text #27
ID : 29
Format : UTF-8
Codec ID : S_TEXT/UTF8
Codec ID/Info : UTF-8 Plain Text
Duration : 56 min 33 s
Bit rate : 80 b/s
Count of elements : 1033
Stream size : 33.3 KiB (0%)
Title : Traditional
Language : Chinese
Default : No
Forced : No



2 个附件 售价 大小 下载 时间

Pine.Gap.S01.720p.NF.WEBRIp.DDP5.1.x264-NTG[btbtt.me].torrent 0 金币 66.53K 2023 次 9天前

Pine.Gap.S01.1080p.NF.WEBRip.DDP5.1.x264-NTG[btbtt.me].torrent 0 金币 56.32K 1120 次 9天前

#1楼
发帖时间:2018-12-07 20:14:50   |   回复数:1
911degrees
隐世仙人♂
非常感谢,谢谢分享
8天前 #2楼
游客组