呆呆狐狸
超级版主

[2018] [美国] [科幻] [打包] [BT下载][西部世界/西方极乐园/Westworld 第二季][全10集打包][英语中字][BD-MKV][2160P[片源]

-->

注:内含官方中字  更多字幕详见下面参数列表

◎译  名 西部世界 第二季/西方极乐园

◎片  名 Westworld Season 2

◎年  代 2018

◎产  地 美国

◎类  别 科幻/西部

◎语  言 英语

◎上映日期 2018-04-22(美国)

◎IMDb评分  9.0/10 from 169 users

◎IMDb链接  http://www.imdb.com/title/tt6243294/

◎豆瓣评分 9.3/10 from 374 users

◎豆瓣链接 https://movie.douban.com/subject/26887174/

◎BT之家整理 http://www.btbtt.co

◎集  数 10

◎片  长 60分钟

◎主  演 埃文·蕾切尔·伍德 Evan Rachel Wood

      坦迪·牛顿 Thandie Newton

      詹姆斯·麦斯登 James Marsden

      吉米·辛普森 Jimmi Simpson

      妲露拉·莱莉 Talulah Riley

      卡佳·赫尔伯斯 Katja Herbers

      艾德·哈里斯 Ed Harris

      乔纳森·塔克 Jonathan Tucker

      杰弗里·怀特 Jeffrey Wright

      路易斯·赫特哈姆 Louis Herthum

      尼尔·杰克逊 Neil Jackson

      古斯塔·斯卡斯加德 Gustaf Skarsgård

      法瑞斯·法瑞斯 Fares Fares

      贝蒂·加布里埃尔 Betty Gabriel

      真田广之 Hiroyuki Sanada

      本·巴恩斯 Ben Barnes

      泰莎·汤普森 Tessa Thompson

      冈本多绪 Tao Okamoto

      茱莉亚·琼斯 Julia Jones

      扎恩·迈克拉农 Zahn McClarnon

      祐真琪琪

      Martin Sensmeier


◎简  介


  HBO宣布续订《西部世界》第2季,该剧自开播以来便收获了极高的口碑,目前第一季的情节发展已渐入佳境,机器人在自我意识觉醒后已开始反控人类,而园区内更大的阴谋还未彻底揭开。据悉,《西部世界》第2季会有10集,有望于2018年播出,制作人乔纳森·诺兰已经开始着手第二季剧本了。


Video
ID : 1
Format : HEVC
Format/Info : High Efficiency Video Coding
Format profile : Main 10@L5.1@High
Codec ID : V_MPEGH/ISO/HEVC
Duration : 1 h 9 min
Bit rate : 44.8 Mb/s
Width : 3 840 pixels
Height : 2 160 pixels
Display aspect ratio : 16:9
Frame rate mode : Constant
Frame rate : 23.976 (24000/1001) FPS
Color space : YUV
Chroma subsampling : 4:2:0
Bit depth : 10 bits
Bits/(Pixel*Frame) : 0.225
Stream size : 21.8 GiB (87%)
Title : Westworld.S02E01.Journey.Into.Night.2160p.BluRay.x265.10bit.SDR.DTS-HD.MA.TrueHD.7.1.Atmos-SWTYBLZ
Writing library : x265 2.9 8-27d8424c799d:[Windows][GCC 8.2.0][64 bit] 10bit
Encoding settings : cpuid=1111039 / frame-threads=16 / numa-pools=16,16 / wpp / no-pmode / no-pme / no-psnr / no-ssim / log-level=2 / input-csp=1 / input-res=3840x2160 / interlace=0 / total-frames=100040 / level-idc=51 / high-tier=1 / uhd-bd=0 / ref=3 / no-allow-non-conformance / repeat-headers / annexb / aud / hrd / info / hash=0 / no-temporal-layers / no-open-gop / min-keyint=1 / keyint=24 / gop-lookahead=0 / bframes=4 / b-adapt=2 / b-pyramid / bframe-bias=0 / rc-lookahead=25 / lookahead-slices=4 / scenecut=40 / radl=0 / no-intra-refresh / ctu=64 / min-cu-size=8 / no-rect / no-amp / max-tu-size=32 / tu-inter-depth=1 / tu-intra-depth=1 / limit-tu=0 / rdoq-level=0 / dynamic-rd=0.00 / no-ssim-rd / signhide / no-tskip / nr-intra=0 / nr-inter=0 / no-constrained-intra / strong-intra-smoothing / max-merge=2 / limit-refs=3 / no-limit-modes / me=1 / subme=2 / merange=57 / temporal-mvp / weightp / no-weightb / no-analyze-src-pics / deblock=0:0 / no-sao / no-sao-non-deblock / rd=3 / no-early-skip / rskip / no-fast-intra / no-tskip-fast / no-cu-lossless / no-b-intra / no-splitrd-skip / rdpenalty=0 / psy-rd=2.00 / psy-rdoq=0.00 / no-rd-refine / no-lossless / cbqpoffs=0 / crqpoffs=0 / rc=crf / crf=16.0 / qcomp=0.60 / qpstep=4 / stats-write=0 / stats-read=0 / vbv-maxrate=160000 / vbv-bufsize=160000 / vbv-init=0.9 / crf-max=0.0 / crf-min=0.0 / ipratio=1.40 / pbratio=1.30 / aq-mode=1 / aq-strength=1.00 / cutree / zone-count=0 / no-strict-cbr / qg-size=32 / no-rc-grain / qpmax=69 / qpmin=0 / no-const-vbv / sar=1 / overscan=0 / videoformat=5 / range=0 / colorprim=2 / transfer=2 / colormatrix=2 / chromaloc=0 / display-window=0 / max-cll=0,0 / min-luma=0 / max-luma=1023 / log2-max-poc-lsb=8 / vui-timing-info / vui-hrd-info / slices=1 / opt-qp-pps / opt-ref-list-length-pps / no-multi-pass-opt-rps / scenecut-bias=0.05 / no-opt-cu-delta-qp / no-aq-motion / no-hdr / no-hdr-opt / no-dhdr10-opt / no-idr-recovery-sei / analysis-reuse-level=5 / scale-factor=0 / refine-intra=0 / refine-inter=0 / refine-mv=0 / no-limit-sao / ctu-info=0 / no-lowpass-dct / refine-mv-type=0 / copy-pic=1 / max-ausize-factor=1.0 / no-dynamic-refine / no-single-sei
Default : Yes
Forced : No

Audio #1
ID : 2
Format : MLP FBA 16-ch
Format/Info : Meridian Lossless Packing FBA with 16-channel presentation
Commercial name : Dolby TrueHD with Dolby Atmos
Codec ID : A_TRUEHD
Duration : 1 h 9 min
Bit rate mode : Variable
Bit rate : 2 799 kb/s
Maximum bit rate : 4 158 kb/s
Channel(s) : 8 channels
Channel layout : L R C LFE Ls Rs Lb Rb
Sampling rate : 48.0 kHz
Frame rate : 1 200.000 FPS (40 SPF)
Compression mode : Lossless
Stream size : 1.36 GiB (5%)
Title : Westworld.S02E01.Journey.Into.Night.2160p.BluRay.x265.10bit.SDR.DTS-HD.MA.TrueHD.7.1.Atmos-SWTYBLZ
Language : English
Default : Yes
Forced : No
Number of dynamic objects : 11
Bed channel count : 1 channel
Bed channel configuration : LFE

Audio #2
ID : 3
Format : DTS XLL
Format/Info : Digital Theater Systems
Commercial name : DTS-HD Master Audio
Codec ID : A_DTS
Duration : 1 h 9 min
Bit rate mode : Variable
Bit rate : 3 250 kb/s
Channel(s) : 8 channels
Channel layout : C L R LFE Lb Rb Lss Rss
Sampling rate : 48.0 kHz
Frame rate : 93.750 FPS (512 SPF)
Bit depth : 24 bits
Compression mode : Lossless
Stream size : 1.58 GiB (6%)
Title : Westworld.S02E01.Journey.Into.Night.2160p.BluRay.x265.10bit.SDR.DTS-HD.MA.TrueHD.7.1.Atmos-SWTYBLZ
Language : English
Default : No
Forced : No

Audio #3
ID : 4
Format : AC-3
Format/Info : Audio Coding 3
Commercial name : Dolby Digital
Codec ID : A_AC3
Duration : 1 h 9 min
Bit rate mode : Constant
Bit rate : 448 kb/s
Channel(s) : 6 channels
Channel layout : L R C LFE Ls Rs
Sampling rate : 48.0 kHz
Frame rate : 31.250 FPS (1536 SPF)
Bit depth : 16 bits
Compression mode : Lossy
Stream size : 223 MiB (1%)
Title : Westworld.S02E01.Journey.Into.Night.2160p.BluRay.x265.10bit.SDR.DTS-HD.MA.TrueHD.7.1.Atmos-SWTYBLZ
Language : English
Service kind : Complete Main
Default : No
Forced : No

Text #1
ID : 5
Format : UTF-8
Codec ID : S_TEXT/UTF8
Codec ID/Info : UTF-8 Plain Text
Duration : 1 h 6 min
Bit rate : 35 b/s
Count of elements : 560
Stream size : 17.2 KiB (0%)
Title : English-SRT
Language : English
Default : Yes
Forced : No

Text #2
ID : 6
Format : PGS
Muxing mode : zlib
Codec ID : S_HDMV/PGS
Codec ID/Info : Picture based subtitle format used on BDs/HD-DVDs
Duration : 1 h 9 min
Bit rate : 23.9 kb/s
Count of elements : 1235
Stream size : 11.9 MiB (0%)
Title : English-PGS
Language : English
Default : No
Forced : No

Text #3
ID : 7
Format : PGS
Muxing mode : zlib
Codec ID : S_HDMV/PGS
Codec ID/Info : Picture based subtitle format used on BDs/HD-DVDs
Duration : 1 h 7 min
Bit rate : 20.1 kb/s
Count of elements : 1115
Stream size : 9.73 MiB (0%)
Title : French-PGS
Language : French
Default : No
Forced : No

Text #4
ID : 8
Format : PGS
Muxing mode : zlib
Codec ID : S_HDMV/PGS
Codec ID/Info : Picture based subtitle format used on BDs/HD-DVDs
Duration : 1 h 9 min
Bit rate : 26.9 kb/s
Count of elements : 1247
Stream size : 13.3 MiB (0%)
Title : German-PGS
Language : German
Default : No
Forced : No

Text #5
ID : 9
Format : PGS
Muxing mode : zlib
Codec ID : S_HDMV/PGS
Codec ID/Info : Picture based subtitle format used on BDs/HD-DVDs
Duration : 1 h 9 min
Bit rate : 25.1 kb/s
Count of elements : 1257
Stream size : 12.5 MiB (0%)
Title : Italian-PGS
Language : Italian
Default : No
Forced : No

Text #6
ID : 10
Format : PGS
Muxing mode : zlib
Codec ID : S_HDMV/PGS
Codec ID/Info : Picture based subtitle format used on BDs/HD-DVDs
Duration : 1 h 7 min
Bit rate : 21.7 kb/s
Count of elements : 1145
Stream size : 10.5 MiB (0%)
Title : Spanish-PGS
Language : Spanish
Default : No
Forced : No

Text #7
ID : 11
Format : PGS
Muxing mode : zlib
Codec ID : S_HDMV/PGS
Codec ID/Info : Picture based subtitle format used on BDs/HD-DVDs
Duration : 1 h 7 min
Bit rate : 22.4 kb/s
Count of elements : 1121
Stream size : 10.8 MiB (0%)
Title : Dutch-PGS
Language : Dutch
Default : No
Forced : No

Text #8
ID : 12
Format : PGS
Muxing mode : zlib
Codec ID : S_HDMV/PGS
Codec ID/Info : Picture based subtitle format used on BDs/HD-DVDs
Duration : 1 h 7 min
Bit rate : 19.4 kb/s
Count of elements : 1162
Stream size : 9.44 MiB (0%)
Title : Chinese-PGS
Language : Chinese
Default : No
Forced : No

Text #9
ID : 13
Format : PGS
Muxing mode : zlib
Codec ID : S_HDMV/PGS
Codec ID/Info : Picture based subtitle format used on BDs/HD-DVDs
Duration : 1 h 7 min
Bit rate : 20.3 kb/s
Count of elements : 1153
Stream size : 9.89 MiB (0%)
Title : Korean-PGS
Language : Korean
Default : No
Forced : No

Text #10
ID : 14
Format : PGS
Muxing mode : zlib
Codec ID : S_HDMV/PGS
Codec ID/Info : Picture based subtitle format used on BDs/HD-DVDs
Duration : 1 h 7 min
Bit rate : 22.4 kb/s
Count of elements : 1149
Stream size : 10.8 MiB (0%)
Title : Spanish-PGS
Language : Spanish
Default : No
Forced : No

Text #11
ID : 15
Format : PGS
Muxing mode : zlib
Codec ID : S_HDMV/PGS
Codec ID/Info : Picture based subtitle format used on BDs/HD-DVDs
Duration : 1 h 7 min
Bit rate : 21.9 kb/s
Count of elements : 1147
Stream size : 10.6 MiB (0%)
Title : Portuguese-PGS
Language : Portuguese
Default : No
Forced : No

Text #12
ID : 16
Format : PGS
Muxing mode : zlib
Codec ID : S_HDMV/PGS
Codec ID/Info : Picture based subtitle format used on BDs/HD-DVDs
Duration : 1 h 7 min
Bit rate : 21.5 kb/s
Count of elements : 977
Stream size : 10.5 MiB (0%)
Title : Czech-PGS
Language : Czech
Default : No
Forced : No

Text #13
ID : 17
Format : PGS
Muxing mode : zlib
Codec ID : S_HDMV/PGS
Codec ID/Info : Picture based subtitle format used on BDs/HD-DVDs
Duration : 1 h 7 min
Bit rate : 20.2 kb/s
Count of elements : 875
Stream size : 9.78 MiB (0%)
Title : Danish-PGS
Language : Danish
Default : No
Forced : No

Text #14
ID : 18
Format : PGS
Muxing mode : zlib
Codec ID : S_HDMV/PGS
Codec ID/Info : Picture based subtitle format used on BDs/HD-DVDs
Duration : 1 h 7 min
Bit rate : 20.4 kb/s
Count of elements : 894
Stream size : 9.86 MiB (0%)
Title : Finnish-PGS
Language : Finnish
Default : No
Forced : No

Text #15
ID : 19
Format : PGS
Muxing mode : zlib
Codec ID : S_HDMV/PGS
Codec ID/Info : Picture based subtitle format used on BDs/HD-DVDs
Duration : 1 h 7 min
Bit rate : 18.3 kb/s
Count of elements : 818
Stream size : 8.83 MiB (0%)
Title : Norwegian-PGS
Language : Norwegian
Default : No
Forced : No

Text #16
ID : 20
Format : PGS
Muxing mode : zlib
Codec ID : S_HDMV/PGS
Codec ID/Info : Picture based subtitle format used on BDs/HD-DVDs
Duration : 1 h 9 min
Bit rate : 20.7 kb/s
Count of elements : 968
Stream size : 10.3 MiB (0%)
Title : Polish-PGS
Language : Polish
Default : No
Forced : No

Text #17
ID : 21
Format : PGS
Muxing mode : zlib
Codec ID : S_HDMV/PGS
Codec ID/Info : Picture based subtitle format used on BDs/HD-DVDs
Duration : 1 h 7 min
Bit rate : 21.0 kb/s
Count of elements : 873
Stream size : 10.1 MiB (0%)
Title : Swedish-PGS
Language : Swedish
Default : No
Forced : No

Menu
00:00:00.000 : :Chapter 1
00:01:41.434 : :Chapter 2
00:13:58.629 : :Chapter 3
00:23:10.180 : :Chapter 4
00:33:49.318 : :Chapter 5
00:46:58.482 : :Chapter 6
00:56:50.073 : :Chapter 7
01:03:57.375 : :Chapter 8
01:08:23.390 : :Chapter 9





1 个附件 售价 大小 下载 时间

Westworld.S02.2160p.BluRay.x265.10bit.SDR.DTS-HD.MA.TrueHD.7.1.Atmos-SWTYBLZ[btbtt.me].torrent 0 金币 658.31K 2471 次 6天前

#1楼
发帖时间:2018-12-06 23:55:43   |   回复数:2
911degrees
隐世仙人♂
非常感谢,谢谢分享
5天前 #2楼
ck323
小有名气
多谢分享
5天前 #3楼
游客组