呆呆狐狸
超级版主

[2018] [美国] [犯罪] [打包] [BT下载][玛雅帮/玛雅摩托帮/Mayans M.C. 第一季][全10集打包][英语英字][MKV][720P/1080P][片源]

-->

◎译  名 玛雅帮/玛雅摩托帮/混乱之子衍生剧

◎片  名 Mayans M.C.

◎年  代 2018

◎产  地 美国

◎类  别 剧情/犯罪

◎语  言 英语

◎上映日期 2018-09-04(美国)

◎BT之家整理 http://www.btbtt.us/

◎集  数 10

◎导  演 诺韦尔托·巴尔巴 Norberto Barba

◎主  演 爱德华·詹姆斯·奥莫斯 Edward James Olmos

      约翰·奥提兹 John Ortiz

      JD Pardo

      Antonio Jaramillo


◎简  介


  FX知名剧集《混乱之子》的衍生剧、以在加州和墨西哥边境活动的墨西哥帮派为主角的《玛雅帮》(Mayans MC)找到主演:著名拉美裔演员Edward James Olmos(新《太空堡垒卡拉迪加》《神盾局特工》《嗜血法医》)将饰演玛雅帮大家长Felipe Reyes,曾经强大的首领已不堪重负,既要奋力掩饰自己的过去,也要带领家人走上合法和光明正大的道路。而剧集时间设定在《混乱之子》之后,将聚焦玛雅帮新秀EZ Reyes的故事,他既要压抑复仇的欲望,也要努力赢得自己所爱的女人们的尊重。听起来就是《混乱之子》的Clay和Jax的状况嘛,果然家家都有难念的经+历史总是不断重演。

  该剧已经被FX预订首集,SOA的灵魂人物Kurt Sutter将和Elgin James一起写剧本,也将执导首集,而Sutter表示该剧与SOA在基调、节奏和故事讲述上都会是不同的,他还透露为什么不是自己独挑大梁:“我作为一个泽西州来的白人,来讲述这个拉丁文化和传统的故事不太恰当,我想找到一个有力的、独特的拉丁之声来运作这个故事,Elgin James就是这个人了。”


Video
ID : 1
Format : AVC
Format/Info : Advanced Video Codec
Format profile : High@L4
Format settings : CABAC / 4 Ref Frames
Format settings, CABAC : Yes
Format settings, ReFrames : 4 frames
Codec ID : V_MPEG4/ISO/AVC
Duration : 1 h 10 min
Bit rate : 9 680 kb/s
Width : 1 920 pixels
Height : 1 080 pixels
Display aspect ratio : 16:9
Frame rate mode : Constant
Frame rate : 23.976 (24000/1001) FPS
Color space : YUV
Chroma subsampling : 4:2:0
Bit depth : 8 bits
Scan type : Progressive
Bits/(Pixel*Frame) : 0.195
Stream size : 4.75 GiB (94%)
Default : Yes
Forced : No
Color range : Limited
Color primaries : BT.709
Transfer characteristics : BT.709
Matrix coefficients : BT.709

Audio
ID : 2
Format : E-AC-3
Format/Info : Enhanced AC-3
Commercial name : Dolby Digital Plus
Codec ID : A_EAC3
Duration : 1 h 10 min
Bit rate mode : Constant
Bit rate : 640 kb/s
Channel(s) : 6 channels
Channel layout : L R C LFE Ls Rs
Sampling rate : 48.0 kHz
Frame rate : 31.250 FPS (1536 SPF)
Compression mode : Lossy
Stream size : 321 MiB (6%)
Language : English
Service kind : Complete Main
Default : Yes
Forced : No

Text #1
ID : 3
Format : UTF-8
Codec ID : S_TEXT/UTF8
Codec ID/Info : UTF-8 Plain Text
Duration : 1 h 10 min
Bit rate : 33 b/s
Count of elements : 661
Stream size : 17.4 KiB (0%)
Language : English
Default : No
Forced : No

Text #2
ID : 4
Format : UTF-8
Codec ID : S_TEXT/UTF8
Codec ID/Info : UTF-8 Plain Text
Duration : 1 h 10 min
Bit rate : 37 b/s
Count of elements : 754
Stream size : 19.3 KiB (0%)
Title : SDH
Language : English
Default : No

Forced : No



2 个附件 售价 大小 下载 时间

Mayans.M.C.S01.720p.AMZN.WEBRip.DDP5.1.x264-NTb[btbtt.me].torrent 0 金币 57.81K 175 次 11天前

Mayans.M.C.S01.1080p.AMZN.WEBRip.DDP5.1.x264-NTb[btbtt.me].torrent 0 金币 109.04K 224 次 11天前

#1楼
发帖时间:2018-11-09 20:36:37   |   回复数:1
911degrees
隐世仙人♂
非常感谢,谢谢分享
11天前 #2楼
游客组