呆呆狐狸
超级版主

[合 集] [英国] [喜剧] [打包] [BT下载][无意冒犯/师姐你好嘢! No Offence 第一至二季][全02季打包][英语英字][BD-MKV][1080P][片源]

-->

◎译  名 无意冒犯

◎片  名 No Offence

◎年  代 2015

◎产  地 英国

◎类  别 剧情/喜剧/犯罪

◎语  言 英语

◎上映日期 2015-05-06(英国)

◎BT之家整理 http://www.btbtt.us/

◎片  长 42分钟

◎导  演 大卫·科尔 David Kerr / 凯瑟琳·莫斯海德 Catherine Morshead / 哈利·布拉德比尔 Harry Bradbeer / 米沙·曼森-史密斯 Misha Manson-Smith

◎主  演 伊莲·卡西迪 Elaine Cassidy

      乔安娜·斯坎伦 Joanna Scanlan

      亚历山德拉·罗奇 Alexandra Roach

      科林·萨蒙 Colin Salmon

      威尔·梅勒 Will Mellor

      保罗·里特 Paul Ritter

      内特·莫汗 Neet Mohan

      汤姆·瓦瑞 Tom Varey


◎简  介


  故事描述一组强悍但好心肠的警察为了抓捕罪犯不息采用各种手段。他们在城中治安环境最差的区域工作,所面对的全都是恶性案件:制毒案、纵火案、新纳粹主义案和谋杀案。这些还只是他们的日常工作。一个令人头疼的连环杀手在城中肆虐,侦缉警督Vivienne Deering(Joanna Scanlan)和她的团队意识到他们遇到了强大的对手。在得力助手Dinah Kowlaska警探(Elanine Cassidy)和Joy Freers调查警司(Alexandra Roach)的协助下,Vivienne发誓要侦破此案。Vivienne的行为实在太怪异,所有人都认为她精神不正常。Dinah性格冲动。Joy Freers最近刚刚升职,担任Dinah的助手。…


Video
ID : 1
Format : AVC
Format/Info : Advanced Video Codec
Format profile : High@L4.1
Format settings : CABAC / 4 Ref Frames
Format settings, CABAC : Yes
Format settings, ReFrames : 4 frames
Codec ID : V_MPEG4/ISO/AVC
Duration : 43 min 22 s
Bit rate : 10.0 Mb/s
Width : 1 920 pixels
Height : 1 080 pixels
Display aspect ratio : 16:9
Frame rate mode : Constant
Frame rate : 25.000 FPS
Color space : YUV
Chroma subsampling : 4:2:0
Bit depth : 8 bits
Scan type : Progressive
Bits/(Pixel*Frame) : 0.194
Stream size : 3.04 GiB (93%)
Writing library : x264 core 148 r2692 64f4e24
Encoding settings : cabac=1 / ref=4 / deblock=1:0:0 / analyse=0x3:0x133 / me=umh / subme=7 / psy=1 / psy_rd=1.00:0.00 / mixed_ref=1 / me_range=16 / chroma_me=1 / trellis=1 / 8x8dct=1 / cqm=0 / deadzone=21,11 / fast_pskip=0 / chroma_qp_offset=-2 / threads=34 / lookahead_threads=5 / sliced_threads=0 / nr=0 / decimate=1 / interlaced=0 / bluray_compat=0 / constrained_intra=0 / bframes=3 / b_pyramid=2 / b_adapt=1 / b_bias=0 / direct=1 / weightb=1 / open_gop=0 / weightp=2 / keyint=250 / keyint_min=25 / scenecut=40 / intra_refresh=0 / rc_lookahead=40 / rc=2pass / mbtree=1 / bitrate=10044 / ratetol=1.0 / qcomp=0.60 / qpmin=0 / qpmax=69 / qpstep=4 / cplxblur=20.0 / qblur=0.5 / ip_ratio=1.40 / aq=1:1.00
Language : English
Default : Yes
Forced : No

Audio
ID : 2
Format : DTS
Format/Info : Digital Theater Systems
Codec ID : A_DTS
Duration : 43 min 22 s
Bit rate mode : Constant
Bit rate : 768 kb/s
Channel(s) : 2 channels
Channel positions : Front: L R
Sampling rate : 48.0 kHz
Frame rate : 93.750 FPS (512 SPF)
Bit depth : 24 bits
Compression mode : Lossy
Stream size : 238 MiB (7%)
Language : English
Default : Yes
Forced : No


2 个附件 售价 大小 下载 时间

No.Offence.S01.1080p.BluRay.x264-ROVERS[btbtt.me].torrent 0 金币 66.30K 371 次 1月前

No.Offence.S02.1080p.BluRay.x264-SHORTBREHD[btbtt.me].torrent 0 金币 58.33K 245 次 1月前

#1楼
发帖时间:2018-09-14 21:50:52   |   回复数:1
911degrees
隐世仙人♂
非常感谢,谢谢分享
1月前 #2楼
游客组