travismk
一代宗师

[2014] [韩国] [剧情] [WEB-1080P] 自由之丘 Hill.of.Freedom.2014.KOREAN.ENSUBBED.1080p.WEBRip.x264-VXT 1.28GB

-->

帖子完整标题:自由之丘 Hill.of.Freedom.2014.KOREAN.ENSUBBED.1080p.WEBRip.x264-VXT 1.28GB



◎译  名 自由之丘/Hill of Freedom/相约在首尔(台)
◎片  名 ??? ??
◎年  代 2014
◎产  地 韩国
◎类  别 剧情
◎语  言 英语,韩语,日语
◎上映日期 2014-09-04(韩国)
◎IMDb评分 7/10 from 974 users
◎IMDb链接 https://www.imdb.com/title/tt3732252/
◎豆瓣评分 7.3/10 from 10535 users
◎豆瓣链接 https://movie.douban.com/subject/10796578/
◎片  长 67分钟
◎导  演 洪常秀 Sang-soo Hong
◎编  剧 洪常秀 Sang-soo Hong
◎主  演 加濑亮 Ryo Kase
      文素丽 So-ri Moon
      徐永嬅 Young-hwa Seo
      金义城 Eui-sung Kim
      尹汝贞 Yeo-jeong Yoon
      纪柱峰 Ju-bong Gi
      郑恩彩 Eun-Chae Jeong
      李珉宇 Min-woo Lee

◎标  签 洪尚秀 | 韩国 | 韩国电影 | 加濑亮 | 2014 | 爱情 | 剧情 | 文艺

◎简  介

  电影讲述的是加濑亮出演的日本男人前往首尔,试图与他心爱的女人复合的故事。

◎获奖情况

  第71届威尼斯电影节 ?(2014)
  地平线单元奖最佳影片(提名) 洪常秀
  
  第9届亚洲电影大奖 ?(2015)
  最佳电影(提名)
  最佳导演(提名) 洪常秀
  最佳男主角(提名) 加濑亮
  
  第51届百想艺术大赏 ?(2015)
  电影类最佳导演(提名) 洪常秀

Video
ID : 1
Format : AVC
Format/Info : Advanced Video Codec
Format profile : [email protected]
Format settings : CABAC / 4 Ref Frames
Format settings, CABAC : Yes
Format settings, Reference frames : 4 frames
Codec ID : avc1
Codec ID/Info : Advanced Video Coding
Duration : 1 h 7 min
Bit rate : 2 500 kb/s
Width : 1 920 pixels
Height : 1 080 pixels
Display aspect ratio : 16:9
Frame rate mode : Constant
Frame rate : 23.976 (23976/1000/189150) FPS
Color space : YUV
Chroma subsampling : 4:2:0
Bit depth : 8 bits
Scan type : Progressive
Bits/(Pixel*Frame) : 0.050
Stream size : 1.17 GiB (92%)
Writing library : x264 core 152 r2851M ba24899
Encoding settings : cabac=1 / ref=4 / deblock=1:-1:-1 / analyse=0x3:0x113 / me=umh / subme=9 / psy=1 / psy_rd=1.00:0.15 / mixed_ref=1 / me_range=24 / chroma_me=1 / trellis=2 / 8x8dct=1 / cqm=0 / deadzone=21,11 / fast_pskip=1 / chroma_qp_offset=-3 / threads=16 / lookahead_threads=4 / sliced_threads=0 / nr=0 / decimate=1 / interlaced=0 / bluray_compat=0 / constrained_intra=0 / bframes=3 / b_pyramid=2 / b_adapt=2 / b_bias=0 / direct=3 / weightb=1 / open_gop=0 / weightp=2 / keyint=250 / keyint_min=25 / scenecut=40 / intra_refresh=0 / rc_lookahead=50 / rc=2pass / mbtree=1 / bitrate=2500 / ratetol=1.0 / qcomp=0.60 / qpmin=0 / qpmax=69 / qpstep=4 / cplxblur=20.0 / qblur=0.5 / vbv_maxrate=31250 / vbv_bufsize=31250 / nal_hrd=none / filler=0 / ip_ratio=1.40 / aq=3:1.00
Encoded date : UTC 2021-01-13 23:41:46
Tagged date : UTC 2021-01-13 23:41:46
Codec configuration box : avcC

Audio
ID : 2
Format : AAC LC
Format/Info : Advanced Audio Codec Low Complexity
Codec ID : mp4a-40-2
Duration : 1 h 7 min
Duration_LastFrame : -11 ms
Bit rate mode : Constant
Bit rate : 224 kb/s
Channel(s) : 2 channels
Channel layout : L R
Sampling rate : 48.0 kHz
Frame rate : 46.875 FPS (1024 SPF)
Compression mode : Lossy
Stream size : 107 MiB (8%)
Language : Korean
Default : Yes
Alternate group : 1
Encoded date : UTC 2021-01-13 23:41:46
Tagged date : UTC 2021-01-13 23:41:46





1 个附件 售价 大小 下载 时间

Hill.of.Freedom.2014.KOREAN.ENSUBBED.1080p.WEBRip.x264-VXT.zip 0 金币 13.46K 140 次 1天前

#1楼
发帖时间:2021-01-14 11:11:13   |   回复数:0
游客组