travismk
一代宗师

[2020] [欧美] [惊悚] [BD-Remux] 索命咒/咒语 Spell.2020.1080p.BluRay.REMUX.AVC.DTS-HD.MA.5.1-FGT 19.66GB

-->

帖子完整标题:索命咒/咒语 Spell.2020.1080p.BluRay.REMUX.AVC.DTS-HD.MA.5.1-FGT 19.66GB



◎译  名 索命咒/咒语(台)
◎片  名 Spell
◎年  代 2020
◎产  地 美国
◎类  别 惊悚 / 恐怖
◎语  言 英语
◎上映日期 2020-10-30(美国网络)
◎IMDb评分 5.4/10 from 2473 users
◎IMDb链接 https://www.imdb.com/title/tt10736580/
◎豆瓣评分 5.9/10 from 734 users
◎豆瓣链接 https://movie.douban.com/subject/34889611/
◎片  长 91分钟
◎导  演 马克·托德莱 Mark Tonderai
◎编  剧 科特·维莫 Kurt Wimmer
◎主  演 欧玛瑞·哈德威克 Omari Hardwick
      洛雷塔·迪瓦恩 Loretta Devine
      洛林·布伦斯 Lorraine Burroughs
      汉娜·格内拉 Hannah Gonera
      卡利法·波顿 Kalifa Burton
      约翰·比斯利 John Beasley
      图米绍·麻沙 Tumisho Masha
      史蒂夫·穆鲁鲁 Steve Mululu
      彼得·巴特勒 Peter Butler
      安德烈·雅各布斯 Andre Jacobs
      尤尔·马西滕 Yule Masiteng

◎标  签 恐怖 | 惊悚 | 巫术 | 美国 | 2020 | 黑人 | 悬疑 | 恐怖惊悚悬疑重口血腥

◎简  介

  Marquis(欧玛瑞·哈德威克 饰)带着家人飞往偏远的阿帕拉契参加父亲的丧礼,不料途中一场暴风雨使得飞机失控。Marquis醒来时受了伤,自己一人困在Ms. Eloise(洛雷塔·迪瓦恩 饰)的阁楼里。Ms.Eloise说自己用了Marquis的血和皮肤制作了巫毒Boogity,并将使用Boogity帮他治疗痊愈。求救无门的Marquis只能想尽办法以智取胜,试图下个月圆之夜之前逃离Ms. Eloise的巫术并拯救自己的家人免于这场邪恶的祭典。

Video
ID : 1
ID in the original source medium : 4113 (0x1011)
Format : AVC
Format/Info : Advanced Video Codec
Format profile : [email protected]
Format settings : CABAC / 4 Ref Frames
Format settings, CABAC : Yes
Format settings, Reference frames : 4 frames
Codec ID : V_MPEG4/ISO/AVC
Duration : 1 h 31 min
Bit rate mode : Variable
Bit rate : 26.5 Mb/s
Maximum bit rate : 35.0 Mb/s
Width : 1 920 pixels
Height : 1 080 pixels
Display aspect ratio : 16:9
Frame rate mode : Constant
Frame rate : 23.976 (24000/1001/189150) FPS
Color space : YUV
Chroma subsampling : 4:2:0
Bit depth : 8 bits
Scan type : Progressive
Bits/(Pixel*Frame) : 0.533
Stream size : 16.9 GiB (86%)
Language : English
Default : No
Forced : No
Original source medium : Blu-ray

Audio #1
ID : 2
ID in the original source medium : 4352 (0x1100)
Format : DTS XLL
Format/Info : Digital Theater Systems
Commercial name : DTS-HD Master Audio
Codec ID : A_DTS
Duration : 1 h 31 min
Bit rate mode : Variable
Bit rate : 3 606 kb/s
Channel(s) : 6 channels
Channel layout : C L R Ls Rs LFE
Sampling rate : 48.0 kHz
Frame rate : 93.750 FPS (512 SPF)
Bit depth : 24 bits
Compression mode : Lossless
Stream size : 2.30 GiB (12%)
Title : DTS-HD MA 5.1
Language : English
Default : Yes
Forced : No
Original source medium : Blu-ray

Audio #2
ID : 3
ID in the original source medium : 4353 (0x1101)
Format : AC-3
Format/Info : Audio Coding 3
Commercial name : Dolby Digital
Codec ID : A_AC3
Duration : 1 h 31 min
Bit rate mode : Constant
Bit rate : 640 kb/s
Channel(s) : 6 channels
Channel layout : L R C LFE Ls Rs
Sampling rate : 48.0 kHz
Frame rate : 31.250 FPS (1536 SPF)
Compression mode : Lossy
Stream size : 418 MiB (2%)
Title : DD 5.1
Language : English
Service kind : Complete Main
Default : No
Forced : No
Original source medium : Blu-ray

Text #1
ID : 4
Format : UTF-8
Codec ID : S_TEXT/UTF8
Codec ID/Info : UTF-8 Plain Text
Duration : 1 h 23 min
Bit rate : 41 b/s
Count of elements : 747
Stream size : 25.4 KiB (0%)
Title : English-SRT
Language : English
Default : Yes
Forced : No

Text #2
ID : 5
ID in the original source medium : 4608 (0x1200)
Format : PGS
Muxing mode : zlib
Codec ID : S_HDMV/PGS
Codec ID/Info : Picture based subtitle format used on BDs/HD-DVDs
Duration : 1 h 23 min
Bit rate : 27.7 kb/s
Count of elements : 1502
Stream size : 16.5 MiB (0%)
Title : English-PGS
Language : English
Default : No
Forced : No
Original source medium : Blu-ray

Text #3
ID : 6
ID in the original source medium : 4609 (0x1201)
Format : PGS
Muxing mode : zlib
Codec ID : S_HDMV/PGS
Codec ID/Info : Picture based subtitle format used on BDs/HD-DVDs
Duration : 1 h 26 min
Bit rate : 33.3 kb/s
Count of elements : 2030
Stream size : 20.6 MiB (0%)
Title : English-SDH-PGS
Language : English
Default : No
Forced : No
Original source medium : Blu-ray

Text #4
ID : 7
ID in the original source medium : 4610 (0x1202)
Format : PGS
Muxing mode : zlib
Codec ID : S_HDMV/PGS
Codec ID/Info : Picture based subtitle format used on BDs/HD-DVDs
Duration : 1 h 30 min
Bit rate : 23.6 kb/s
Count of elements : 1488
Stream size : 15.3 MiB (0%)
Title : Spanish-PGS
Language : Spanish
Default : No
Forced : No
Original source medium : Blu-ray

Text #5
ID : 8
ID in the original source medium : 4611 (0x1203)
Format : PGS
Muxing mode : zlib
Codec ID : S_HDMV/PGS
Codec ID/Info : Picture based subtitle format used on BDs/HD-DVDs
Duration : 1 h 30 min
Bit rate : 24.9 kb/s
Count of elements : 1508
Stream size : 16.2 MiB (0%)
Title : Frecnh-PGS
Language : French
Default : No
Forced : No
Original source medium : Blu-ray

Menu
00:00:00.000 : en:Chapter 01
00:06:27.095 : en:Chapter 02
00:16:16.850 : en:Chapter 03
00:25:30.779 : en:Chapter 04
00:33:16.869 : en:Chapter 05
00:41:28.777 : en:Chapter 06
00:49:07.402 : en:Chapter 07
00:58:32.550 : en:Chapter 08
01:05:45.983 : en:Chapter 09
01:11:00.214 : en:Chapter 10
01:16:46.810 : en:Chapter 11
01:24:28.730 : en:Chapter 12





1 个附件 售价 大小 下载 时间

Spell.2020.1080p.BluRay.REMUX.AVC.DTS-HD.MA.5.1-FGT.zip 0 金币 98.98K 273 次 2天前

#1楼
发帖时间:2021-01-13 21:35:08   |   回复数:0
游客组