travismk
一代宗师

[更 早] [其他] [剧情] [BD-1080P] 傅满洲之复仇 The.Vengeance.of.Fu.Manchu.1967.1080p.BluRay.x264-ORBS 13.05GB

-->

帖子完整标题:傅满洲之复仇 The.Vengeance.of.Fu.Manchu.1967.1080p.BluRay.x264-ORBS 13.05GB



◎译  名 傅满洲之复仇/Rache des Dr. Fu Man Chu, Die
◎片  名 The Vengeance of Fu Manchu
◎年  代 1967
◎产  地 英国,爱尔兰,西德,中国香港
◎类  别 剧情 / 动作 / 恐怖 / 犯罪
◎语  言 英语
◎上映日期 1967-05-25
◎IMDb评分 5.2/10 from 806 users
◎IMDb链接 https://www.imdb.com/title/tt0063764/
◎豆瓣评分 /10 from 0 users
◎豆瓣链接 https://movie.douban.com/subject/2279507/
◎片  长 USA: 91 分钟
◎导  演 杰瑞米·萨默斯 Jeremy Summers
◎编  剧 萨克斯·儒默 Sax Rohmer / 哈利·阿兰·托尔斯 Harry Alan Towers
◎主  演 克里斯托弗·李 Christopher Lee
      道格拉斯·威尔默 Douglas Wilmer
      周采芹 Tsai Chin
      彼得·卡斯滕 Peter Carsten
      郭弼 Burt Kwouk
      玛丽亚·罗姆 Maria Rohm
      Noel Trevarthen
      Suzanne Roquette
      霍华德·马里昂-克劳福德 Howard Marion-Crawford
      沃尔夫冈·基林 Wolfgang Kieling
      霍斯特·弗兰克 Horst Frank
      埃迪·伯恩 Eddie Byrne

◎标  签 傅满洲 | 英国 | 1967 | 1960s | 犯罪 | 经典老片 | fumanchu | 恐怖

◎简  介

  暂无相关剧情介绍

Video
ID : 1
Format : AVC
Format/Info : Advanced Video Codec
Format profile : [email protected]
Format settings : CABAC / 4 Ref Frames
Format settings, CABAC : Yes
Format settings, Reference frames : 4 frames
Codec ID : V_MPEG4/ISO/AVC
Duration : 1 h 31 min
Bit rate : 19.5 Mb/s
Width : 1 792 pixels
Height : 1 080 pixels
Display aspect ratio : 5:3
Frame rate mode : Constant
Frame rate : 23.976 (24000/1001/189150) FPS
Color space : YUV
Chroma subsampling : 4:2:0
Bit depth : 8 bits
Scan type : Progressive
Bits/(Pixel*Frame) : 0.420
Stream size : 12.4 GiB (95%)
Writing library : x264 core 161 r3027 4121277
Encoding settings : cabac=1 / ref=4 / deblock=1:-3:-3 / analyse=0x3:0x133 / me=umh / subme=10 / psy=1 / psy_rd=1.20:0.00 / mixed_ref=1 / me_range=24 / chroma_me=1 / trellis=2 / 8x8dct=1 / cqm=0 / deadzone=21,11 / fast_pskip=0 / chroma_qp_offset=-2 / threads=6 / lookahead_threads=1 / sliced_threads=0 / nr=0 / decimate=0 / interlaced=0 / bluray_compat=0 / constrained_intra=0 / bframes=8 / b_pyramid=2 / b_adapt=2 / b_bias=0 / direct=3 / weightb=1 / open_gop=0 / weightp=2 / keyint=250 / keyint_min=23 / scenecut=40 / intra_refresh=0 / rc_lookahead=60 / rc=crf / mbtree=1 / crf=21.5 / qcomp=0.60 / qpmin=0 / qpmax=69 / qpstep=4 / ip_ratio=1.40 / aq=3:0.90
Default : Yes
Forced : No
Color range : Limited
Matrix coefficients : BT.709

Audio #1
ID : 2
Format : FLAC
Format/Info : Free Lossless Audio Codec
Codec ID : A_FLAC
Duration : 1 h 31 min
Bit rate mode : Variable
Bit rate : 696 kb/s
Channel(s) : 1 channel
Channel layout : C
Sampling rate : 48.0 kHz
Frame rate : 11.719 FPS (4096 SPF)
Bit depth : 24 bits
Compression mode : Lossless
Stream size : 455 MiB (3%)
Writing library : libFLAC 1.3.2 (UTC 2017-01-01)
Language : English
Default : Yes
Forced : No

Audio #2
ID : 3
Format : AAC LC
Format/Info : Advanced Audio Codec Low Complexity
Codec ID : A_AAC-2
Duration : 1 h 31 min
Bit rate : 109 kb/s
Channel(s) : 2 channels
Channel layout : L R
Sampling rate : 48.0 kHz
Frame rate : 46.875 FPS (1024 SPF)
Compression mode : Lossy
Delay relative to video : 20 ms
Stream size : 71.4 MiB (1%)
Title : Commentary
Language : English
Default : No
Forced : No

Audio #3
ID : 4
Format : AAC LC
Format/Info : Advanced Audio Codec Low Complexity
Codec ID : A_AAC-2
Duration : 1 h 31 min
Bit rate : 151 kb/s
Channel(s) : 2 channels
Channel layout : L R
Sampling rate : 48.0 kHz
Frame rate : 46.875 FPS (1024 SPF)
Compression mode : Lossy
Delay relative to video : 20 ms
Stream size : 98.4 MiB (1%)
Title : Commentary
Language : English
Default : No
Forced : No

Text
ID : 5
Format : PGS
Muxing mode : zlib
Codec ID : S_HDMV/PGS
Codec ID/Info : Picture based subtitle format used on BDs/HD-DVDs
Duration : 1 h 31 min
Bit rate : 29.4 kb/s
Count of elements : 1804
Stream size : 19.2 MiB (0%)
Title : SDH
Language : English
Default : No
Forced : No

Menu
00:00:00.000 : en:Chapter 01
00:09:18.641 : en:Chapter 02
00:19:33.672 : en:Chapter 03
00:28:19.448 : en:Chapter 04
00:36:50.583 : en:Chapter 05
00:43:44.539 : en:Chapter 06
00:53:32.835 : en:Chapter 07
01:03:38.690 : en:Chapter 08
01:13:13.180 : en:Chapter 09
01:24:26.728 : en:Chapter 10





1 个附件 售价 大小 下载 时间

The.Vengeance.of.Fu.Manchu.1967.1080p.BluRay.x264-ORBS.zip 0 金币 65.98K 448 次 2天前

#1楼
发帖时间:2021-01-13 19:17:18   |   回复数:1
stephen421
武林高手
这也能发?什么都搬啊?
2天前 #2楼
游客组