travismk
一代宗师

[更 早] [其他] [惊悚] [BD-1080P] 解剖 Anatomie.2000.GERMAN.1080p.BluRay.x264-HANDJOB 8.00GB

-->

帖子完整标题:解剖 Anatomie.2000.GERMAN.1080p.BluRay.x264-HANDJOB 8.00GB



◎译  名 解剖/Anatomy/活人破胆/解剖杀人狂
◎片  名 Anatomie
◎年  代 2000
◎产  地 德国
◎类  别 惊悚 / 恐怖
◎语  言 德语,拉丁语
◎上映日期 2000-02-03(德国)
◎IMDb评分 6.1/10 from 11602 users
◎IMDb链接 https://www.imdb.com/title/tt0187696/
◎豆瓣评分 6.5/10 from 1006 users
◎豆瓣链接 https://movie.douban.com/subject/1307913/
◎片  长 103 分钟
◎导  演 斯戴芬·卢佐维茨基 Stefan Ruzowitzky
◎编  剧 斯戴芬·卢佐维茨基 Stefan Ruzowitzky
◎主  演 弗朗卡·波滕特 Franka Potente
      本诺·菲尔曼 Benno Fürmann
      安娜·卢斯 Anna Loos
      塞巴斯蒂安·布隆贝格 Sebastian Blomberg
      霍尔格·施佩克汉 Holger Speckhahn
      特劳戈特·布雷 Traugott Buhre
      奥利弗·瓦努克 Oliver Wnuk
      阿尔恩特·施韦林·索瑞 Arndt Schwering-Sohnrey
      安德烈亚斯·金特 Andreas Günther
      吕迪格·福格勒 Rüdiger Vogler
      维尔纳·迪塞尔 Werner Dissel
      格纳迪·文格洛夫 Gennadi Vengerov

◎标  签 德国 | 恐怖 | 惊悚 | 解剖 | 德国电影 | 2000 | 恐怖片 | 医德

◎简  介

  奋发向上的医学院学生宝拉(FrankaPotente),好不容易获准进入颇负盛名的海德堡研究机构,她希望能继承祖父的衣钵,成为一名出色的医生。在上解剖课时,她发现解剖台上的尸体竟是她认识的人,便积极暗中调查尸体的来源,发现有一个以残酷手法研究活人的神秘社团在学校活动,而班上的同学也一一离奇失踪,她决定继续挖掘真相。

Video
ID : 1
Format : AVC
Format/Info : Advanced Video Codec
Format profile : [email protected]
Format settings : CABAC / 5 Ref Frames
Format settings, CABAC : Yes
Format settings, Reference frames : 5 frames
Codec ID : V_MPEG4/ISO/AVC
Duration : 1 h 39 min
Bit rate : 10.5 Mb/s
Width : 1 920 pixels
Height : 812 pixels
Display aspect ratio : 2.35:1
Frame rate mode : Constant
Frame rate : 23.976 (24000/1001/189150) FPS
Color space : YUV
Chroma subsampling : 4:2:0
Bit depth : 8 bits
Scan type : Progressive
Bits/(Pixel*Frame) : 0.280
Stream size : 7.26 GiB (91%)
Writing library : x264 core 148 r2643 5c65704
Encoding settings : cabac=1 / ref=5 / deblock=1:-2:-2 / analyse=0x3:0x133 / me=umh / subme=9 / psy=1 / psy_rd=1.00:0.00 / mixed_ref=1 / me_range=24 / chroma_me=1 / trellis=2 / 8x8dct=1 / cqm=0 / deadzone=21,11 / fast_pskip=0 / chroma_qp_offset=-2 / threads=12 / lookahead_threads=1 / sliced_threads=0 / nr=0 / decimate=1 / interlaced=0 / bluray_compat=0 / constrained_intra=0 / bframes=6 / b_pyramid=2 / b_adapt=2 / b_bias=0 / direct=3 / weightb=1 / open_gop=0 / weightp=2 / keyint=240 / keyint_min=24 / scenecut=40 / intra_refresh=0 / rc_lookahead=50 / rc=crf / mbtree=0 / crf=21.0 / qcomp=0.60 / qpmin=0 / qpmax=69 / qpstep=4 / vbv_maxrate=62500 / vbv_bufsize=78125 / crf_max=0.0 / nal_hrd=none / filler=0 / ip_ratio=1.40 / pb_ratio=1.30 / aq=3:0.80
Default : Yes
Forced : No
Color range : Limited
Color primaries : BT.709
Transfer characteristics : BT.709
Matrix coefficients : BT.709

Audio #1
ID : 2
Format : AC-3
Format/Info : Audio Coding 3
Commercial name : Dolby Digital
Codec ID : A_AC3
Duration : 1 h 39 min
Bit rate mode : Constant
Bit rate : 384 kb/s
Channel(s) : 6 channels
Channel layout : L R C LFE Ls Rs
Sampling rate : 48.0 kHz
Frame rate : 31.250 FPS (1536 SPF)
Compression mode : Lossy
Delay relative to video : -5 ms
Stream size : 273 MiB (3%)
Language : German
Service kind : Complete Main
Default : Yes
Forced : No

Audio #2
ID : 3
Format : AC-3
Format/Info : Audio Coding 3
Commercial name : Dolby Digital
Codec ID : A_AC3
Duration : 1 h 39 min
Bit rate mode : Constant
Bit rate : 640 kb/s
Channel(s) : 6 channels
Channel layout : L R C LFE Ls Rs
Sampling rate : 48.0 kHz
Frame rate : 31.250 FPS (1536 SPF)
Compression mode : Lossy
Delay relative to video : -5 ms
Stream size : 455 MiB (6%)
Title : English Dub
Language : English
Service kind : Complete Main
Default : No
Forced : No

Text #1
ID : 4
Format : UTF-8
Codec ID : S_TEXT/UTF8
Codec ID/Info : UTF-8 Plain Text
Duration : 1 h 38 min
Bit rate : 51 b/s
Count of elements : 1055
Stream size : 37.1 KiB (0%)
Title : Full
Language : English
Default : Yes
Forced : No

Text #2
ID : 5
Format : PGS
Muxing mode : zlib
Codec ID : S_HDMV/PGS
Codec ID/Info : Picture based subtitle format used on BDs/HD-DVDs
Duration : 1 h 38 min
Bit rate : 31.5 kb/s
Count of elements : 2109
Stream size : 22.2 MiB (0%)
Language : English
Default : No
Forced : No

Text #3
ID : 6
Format : PGS
Muxing mode : zlib
Codec ID : S_HDMV/PGS
Codec ID/Info : Picture based subtitle format used on BDs/HD-DVDs
Duration : 1 h 37 min
Bit rate : 30.8 kb/s
Count of elements : 2079
Stream size : 21.5 MiB (0%)
Language : French
Default : No
Forced : No

Text #4
ID : 7
Format : PGS
Muxing mode : zlib
Codec ID : S_HDMV/PGS
Codec ID/Info : Picture based subtitle format used on BDs/HD-DVDs
Duration : 1 h 37 min
Bit rate : 30.0 kb/s
Count of elements : 2099
Stream size : 21.0 MiB (0%)
Language : Spanish
Default : No
Forced : No

Menu
00:00:00.000 : :Start
00:02:13.342 : :Paula Henning
00:06:58.043 : :\"Where am I?\"
00:09:34.240 : :A textbook case
00:13:26.931 : :The anatomy lab
00:16:59.685 : :Getting to know you
00:21:00.885 : :The dissecting room
00:23:22.026 : :Professor Grombek
00:24:36.558 : :Genuine human speciman
00:27:33.110 : :An old acquaintance
00:30:55.729 : :Blood samples
00:32:40.208 : :Tissue samples
00:37:09.602 : :Girl talk
00:40:14.495 : :Anti-Hippocrates Society
00:41:40.498 : :Promidal
00:46:36.711 : :A warning
00:49:48.903 : :Anatomy test
00:51:19.076 : :Hein
00:52:40.449 : :Over between them
00:56:40.522 : :Morgue lockout
01:02:18.235 : :A present
01:05:27.799 : :\"Gretchen\'s on table 3.\"
01:08:34.944 : :The Lodge
01:12:32.682 : :Lodge meeting
01:16:43.933 : :Comforting Paula
01:20:23.485 : :The Specimen Room
01:22:48.797 : :Oliver the historian
01:31:31.778 : :Shock ending





1 个附件 售价 大小 下载 时间

Anatomie.2000.GERMAN.1080p.BluRay.x264-HANDJOB.zip 0 金币 40.64K 497 次 12天前

#1楼
发帖时间:2020-11-22 21:55:19   |   回复数:0
游客组