travismk
一代宗师

[2014] [其他] [剧情] [BD-1080P] 极少数的吻/由吻生爱 For.a.Handful.of.Kisses.2014.SPANISH.1080p.BluRay.x264.FLAC2.0-EA 10.

-->

帖子完整标题:极少数的吻/由吻生爱 For.a.Handful.of.Kisses.2014.SPANISH.1080p.BluRay.x264.FLAC2.0-EA 10.48GB



◎译  名 极少数的吻/由吻生爱
◎片  名 Por un pu?ado de besos
◎年  代 2014
◎产  地 西班牙
◎类  别 剧情 / 爱情
◎语  言 西班牙语
◎上映日期 2014-05-16(西班牙)
◎IMDb评分 5.9/10 from 659 users
◎IMDb链接 https://www.imdb.com/title/tt3028412/
◎豆瓣评分 7.1/10 from 480 users
◎豆瓣链接 https://movie.douban.com/subject/25903761/
◎片  长 98分钟
◎导  演 David Menkes
◎编  剧 David Menkes / Jordi Sierra i Fabra
◎主  演 玛丽娜·萨拉斯 Marina Salas
      安娜·德·阿玛斯 Ana de Armas
      马丁尼奥·里瓦斯 Marti?o Rivas
      Joel Bosqued
      扬·科奈特 Jan Cornet
      安德烈娅·杜罗 Andrea Duro
      梅根.蒙塔内尔 Megan Montaner
      阿莱扬德拉·奥利娃 Alejandra Onieva
      露西娅·拉莫斯 Lucía Ramos

◎标  签 爱情 | 西班牙 | 西班牙电影 | 艾滋病 | 安娜·德·阿玛斯 | 欧洲 | 清新 | 2014

◎简  介

  Por un pu?ado de besos cuenta la historia de una chica, Sol, que tiene que rehacer su vida y decide hacerlo emprendiendo una historia de amor. Pone un anuncio para buscar al chico ideal, se citan y, desde el primer momento, se enamoran, iniciando un intenso romance marcado por las ganas de vivir de ella y las mentiras de él. ?Pueden un pu?ado de besos cambiar la vida de alguien para siempre?

◎获奖情况

  第29届西班牙戈雅奖 ?(2015)
  最佳服装设计(提名) CristinaRodríguez

Video
ID : 1
Format : AVC
Format/Info : Advanced Video Codec
Format profile : [email protected]
Format settings : CABAC / 5 Ref Frames
Format settings, CABAC : Yes
Format settings, Reference frames : 5 frames
Codec ID : V_MPEG4/ISO/AVC
Duration : 1 h 38 min
Bit rate : 14.6 Mb/s
Width : 1 920 pixels
Height : 816 pixels
Display aspect ratio : 2.35:1
Frame rate mode : Constant
Frame rate : 24.000 FPS
Color space : YUV
Chroma subsampling : 4:2:0
Bit depth : 8 bits
Scan type : Progressive
Bits/(Pixel*Frame) : 0.389
Stream size : 10.0 GiB (96%)
Title : -EA
Writing library : x264 core 161 r3018+53 18a1d6c t_mod_New [(8 & 10)[email protected] X86_64]
Encoding settings : cabac=1 / ref=5 / deblock=1:-3:-3 / analyse=0x3:0x133 / me=umh / subme=10 / psy=1 / fade_compensate=0.00 / psy_rd=0.97:0.00 / mixed_ref=1 / me_range=32 / chroma_me=1 / trellis=2 / 8x8dct=1 / cqm=0 / deadzone=21,11 / fast_pskip=0 / chroma_qp_offset=-2 / threads=18 / lookahead_threads=4 / sliced_threads=0 / nr=0 / decimate=0 / interlaced=0 / bluray_compat=0 / constrained_intra=0 / fgo=0 / bframes=10 / b_pyramid=2 / b_adapt=2 / b_bias=0 / direct=3 / weightb=1 / open_gop=0 / weightp=2 / keyint=240 / keyint_min=24 / scenecut=40 / intra_refresh=0 / rc_lookahead=60 / rc=crf / mbtree=0 / crf=16.0500 / qcomp=0.65 / qpmin=0:0:0 / qpmax=69:69:69 / qpstep=4 / vbv_maxrate=62500 / vbv_bufsize=78125 / crf_max=0.0 / nal_hrd=none / filler=0 / ip_ratio=1.35 / pb_ratio=1.25 / aq=3:0.85 / aq-sensitivity=10.00 / aq-factor=1.00:1.00:1.00 / aq2=0 / aq3=0 / zones=3949,4038,crf=14.5/7223,8304,crf=14.5/8592,8870,crf=14.5/9847,10055,crf=14.5/13680,13777,crf=14.5/13819,13902,crf=14.5/19382,21659,crf=14.5/22195,22609,crf=14.5/36807,36932,crf=14.5/37117,37146,crf=14.5/51313,52129,crf=14.5/52215,52519,crf=14.5/58571,61482,crf=14.5/62085,62871,crf=14.5/72205,72354,crf=14.5/72624,72896,crf=14.5/73184,73265,crf=14.5/73548,73655,crf=14.5/73800,73934,crf=14.5/74088,74148,crf=14.5/74199,74379,crf=14.5/74727,74853,crf=14.5/78569,79437,crf=14.5/84376,86434,crf=14.5/90434,91220,crf=14.5/94721,96115,crf=14.5/96194,96293,crf=14.5/96423,97217,crf=14.5/97750,98316,crf=14.5/98509,99633,crf=14.5/99731,100095,crf=14.5/103474,103771,crf=14.5/103887,104108,crf=14.5/104907,105501,crf=14.5/106982,107561,crf=14.5/108871,111248,crf=14.5/111365,111416,crf=14.5/111541,111615,crf=14.5/111726,111797,crf=14.5/111828,111990,crf=14.5/113744,114390,crf=14.5/114452,114524,crf=14.5/114682,114818,crf=14.5/114856,115008,crf=14.5/115053,115116,crf=14.5/115153,115228,crf=14.5/115588,117010,crf=14.5/117115,117994,crf=14.5/118222,118311,crf=14.5/120727,120838,crf=14.5/135717,141174,crf=23
Language : Spanish
Default : Yes
Forced : No
Color range : Limited
Color primaries : BT.709
Transfer characteristics : BT.709
Matrix coefficients : BT.709

Audio
ID : 2
Format : FLAC
Format/Info : Free Lossless Audio Codec
Codec ID : A_FLAC
Duration : 1 h 38 min
Bit rate mode : Variable
Bit rate : 653 kb/s
Channel(s) : 2 channels
Channel layout : L R
Sampling rate : 48.0 kHz
Frame rate : 11.719 FPS (4096 SPF)
Bit depth : 16 bits
Compression mode : Lossless
Stream size : 458 MiB (4%)
Writing library : libFLAC 1.2.1 (UTC 2007-09-17)
Language : Spanish
Default : Yes
Forced : No

Text #1
ID : 3
Format : UTF-8
Codec ID : S_TEXT/UTF8
Codec ID/Info : UTF-8 Plain Text
Duration : 1 h 37 min
Bit rate : 53 b/s
Count of elements : 1033
Stream size : 38.4 KiB (0%)
Title : srt
Language : English
Default : Yes
Forced : Yes

Text #2
ID : 4
Format : PGS
Muxing mode : zlib
Codec ID : S_HDMV/PGS
Codec ID/Info : Picture based subtitle format used on BDs/HD-DVDs
Duration : 1 h 37 min
Bit rate : 37.5 kb/s
Count of elements : 2066
Stream size : 26.2 MiB (0%)
Title : sup
Language : English
Default : No
Forced : No

Menu
00:00:00.000 : :Chapter 01
00:09:48.500 : :Chapter 02
00:18:15.500 : :Chapter 03
00:29:51.000 : :Chapter 04
00:37:22.000 : :Chapter 05
00:47:14.000 : :Chapter 06
00:54:34.000 : :Chapter 07
01:05:47.000 : :Chapter 08
01:18:59.000 : :Chapter 09
01:29:40.000 : :Chapter 10
01:33:55.000 : :Chapter 11





1 个附件 售价 大小 下载 时间

For.a.Handful.of.Kisses.2014.SPANISH.1080p.BluRay.x264.FLAC2.0-EA.zip 0 金币 53.12K 343 次 12天前

#1楼
发帖时间:2020-11-22 21:51:02   |   回复数:0
游客组