travismk
一代宗师

[更 早] [其他] [剧情] [BD-720P] 邪灵 Viy.1967.720p.BluRay.x264-CiNEPHiLiA 5.19GB

-->

帖子完整标题:邪灵 Viy.1967.720p.BluRay.x264-CiNEPHiLiA 5.19GB



◎译  名 邪灵/Spirit of Evil/Viy/维/魔鬼的精神
◎片  名 Вий
◎年  代 1967
◎产  地 苏联
◎类  别 剧情 / 喜剧 / 恐怖 / 奇幻
◎语  言 俄语
◎上映日期 1967-11-27
◎IMDb评分 7.4/10 from 5705 users
◎IMDb链接 https://www.imdb.com/title/tt0062453/
◎豆瓣评分 7.1/10 from 582 users
◎豆瓣链接 https://movie.douban.com/subject/1927876/
◎片  长 77 分钟
◎导  演 康斯坦丁·叶尔绍夫 Konstantin Yershov / 格奥尔基·克罗帕乔夫 Georgi Kropachyov
◎编  剧 康斯坦丁·叶尔绍夫 Konstantin Yershov / 果戈理 Nikolai Gogol / 亚历山大·普图什科 Aleksandr Ptushko / 格奥尔基·克罗帕乔夫 Georgi Kropachyov
◎主  演 列昂尼德·库拉夫廖夫 Leonid Kuravlyov
      纳塔利娅·瓦利 Natalya Varley
      阿列克谢·格拉济林 Aleksei Glazyrin
      尼古拉·库图佐夫 Nikolai Kutuzov
      瓦季姆·扎哈尔琴科 Vadim Zakharchenko
      弗拉基米尔·萨尔尼科夫 Vladimir Salnikov
      德米特里·卡普卡 Dmitri Kapka
      斯捷潘·什库拉特 Stepan Shkurat
      尼古拉·雅科夫琴科 Nikolai Yakovchenko

◎标  签 恐怖 | 苏联 | 奇幻 | 苏联电影 | 俄罗斯 | 1967 | 苏俄 | 1970s

◎简  介

  The movie follows the original tale in a somewhat loose fashion, but manages to retain the majority of the images and action.
  
  A seminary student must survive three nights in prayer guarding the deceased witch maiden while she, along with an army of hellish demons, try to lure him out of his Holy Ring of Chalk.

Video
ID : 1
Format : AVC
Format/Info : Advanced Video Codec
Format profile : [email protected]
Format settings : CABAC / 8 Ref Frames
Format settings, CABAC : Yes
Format settings, Reference frames : 8 frames
Codec ID : V_MPEG4/ISO/AVC
Duration : 1 h 16 min
Bit rate : 9 041 kb/s
Width : 986 pixels
Height : 720 pixels
Display aspect ratio : 4:3
Frame rate mode : Constant
Frame rate : 23.976 (24000/1001/189150) FPS
Color space : YUV
Chroma subsampling : 4:2:0
Bit depth : 8 bits
Scan type : Progressive
Bits/(Pixel*Frame) : 0.531
Stream size : 4.84 GiB (93%)
Writing library : x264 core 161 r3018 db0d417
Encoding settings : cabac=1 / ref=8 / deblock=1:-3:-3 / analyse=0x3:0x133 / me=umh / subme=9 / psy=1 / psy_rd=1.00:0.00 / mixed_ref=1 / me_range=24 / chroma_me=1 / trellis=2 / 8x8dct=1 / cqm=0 / deadzone=21,11 / fast_pskip=0 / chroma_qp_offset=-2 / threads=9 / lookahead_threads=1 / sliced_threads=0 / nr=0 / decimate=0 / interlaced=0 / bluray_compat=0 / constrained_intra=0 / bframes=5 / b_pyramid=2 / b_adapt=2 / b_bias=0 / direct=3 / weightb=1 / open_gop=0 / weightp=2 / keyint=240 / keyint_min=23 / scenecut=40 / intra_refresh=0 / rc_lookahead=60 / rc=crf / mbtree=0 / crf=14.0 / qcomp=0.60 / qpmin=0 / qpmax=69 / qpstep=4 / vbv_maxrate=62500 / vbv_bufsize=78125 / crf_max=0.0 / nal_hrd=none / filler=0 / ip_ratio=1.40 / pb_ratio=1.30 / aq=3:0.65
Default : Yes
Forced : No

Audio
ID : 2
Format : FLAC
Format/Info : Free Lossless Audio Codec
Codec ID : A_FLAC
Duration : 1 h 16 min
Bit rate mode : Variable
Bit rate : 659 kb/s
Channel(s) : 1 channel
Channel layout : C
Sampling rate : 48.0 kHz
Frame rate : 11.719 FPS (4096 SPF)
Bit depth : 24 bits
Compression mode : Lossless
Stream size : 361 MiB (7%)
Writing library : libFLAC 1.2.1 (UTC 2007-09-17)
Language : Russian
Default : Yes
Forced : No

Text #1
ID : 3
Format : PGS
Muxing mode : zlib
Codec ID : S_HDMV/PGS
Codec ID/Info : Picture based subtitle format used on BDs/HD-DVDs
Duration : 1 h 15 min
Bit rate : 13.8 kb/s
Count of elements : 929
Stream size : 7.44 MiB (0%)
Language : English
Default : No
Forced : No

Text #2
ID : 4
Format : UTF-8
Codec ID : S_TEXT/UTF8
Codec ID/Info : UTF-8 Plain Text
Duration : 1 h 15 min
Bit rate : 30 b/s
Count of elements : 464
Stream size : 16.8 KiB (0%)
Language : English
Default : Yes
Forced : Yes

Menu
00:00:00.000 : :Chapter 01
00:02:18.805 : :Chapter 02
00:15:30.930 : :Chapter 03
00:27:06.166 : :Chapter 04
00:39:09.931 : :Chapter 05
00:54:27.765 : :Chapter 06
01:05:55.702 : :Chapter 07
01:15:20.599 : :Chapter 08





1 个附件 售价 大小 下载 时间

Viy.1967.720p.BluRay.x264-CiNEPHiLiA.zip 0 金币 26.61K 161 次 13天前

#1楼
发帖时间:2020-10-18 19:46:24   |   回复数:0
游客组