squallzhao
武林盟主

[2013] [日本] [剧情] [BD-1080P] SPEC:结 后篇 SPEC.Close.Reincarntion.2013.JAPANESE.1080p.BluRay.x264.DTS-WiKi 8.07G

-->

帖子完整标题:SPEC:结 后篇 SPEC.Close.Reincarntion.2013.JAPANESE.1080p.BluRay.x264.DTS-WiKi 8.07GB



◎译  名 SPEC:结 后篇/SPEC: Close - Reincarnation/SPEC: Ketsu - Kou no hen/SPEC完结篇:爻之篇
◎片  名 劇場版 SPEC~結~ 爻の篇
◎年  代 2013
◎产  地 日本
◎类  别 剧情
◎语  言 日语
◎上映日期 2013-11-29(日本)
◎IMDb评分 5.2/10 from 131 users
◎IMDb链接 https://www.imdb.com/title/tt2798172/
◎豆瓣评分 7.2/10 from 11657 users
◎豆瓣链接 https://movie.douban.com/subject/22736358/
◎导  演 堤幸彦 Yukihiko Tsutsumi
◎编  剧 西荻弓绘 Yumie Nishiogi
◎主  演 户田惠梨香 Erika Toda
      加濑亮 Ryo Kase
      大岛优子 Yuko Oshima
      向井理 Osamu Mukai
      远藤宪一 Ken'ichi End?
      神木隆之介 Ry?nosuke Kamiki
      福田沙纪 Saki Fukuda
      城田优 Yuu Shirota
      田中哲司 Tetsushi Tanaka
      安田显 Ken Yasuda
      真野惠里菜 Erina Mano
      北村一辉 Kazuki Kitamura
      栗山千明 Chiaki Kuriyama
      浅野优子 Y?ko Asano
      龙雷太 Raita Ry?
      有村架纯 Kasumi Arimura
      北大路欣也 Kinya Kitaoji
      堀北真希 Maki Horikita
      渡边一计 Ikkei Watanabe
      桥本真帆 Maho Hashimoto

◎标  签 户田惠梨香 | SPEC | 日本 | 加濑亮 | 日剧 | 日本电影 | 日剧SP | 看过的电视剧

◎简  介

  前人类和普通人类的人种战争已经到了白热化的阶段,野野村组长去世后,吉川(北村一辉 饰)、当麻纱绫(户田惠梨香 饰)和濑文焚流(加濑亮 饰)等人聚在未详总部,苦苦思索J教授的真身。谁知就在当麻刚刚弄清真相的同时,警察医院内的成年和儿童SPEC持有者遭到残忍屠戮。愤怒的当麻无法抑制体内被封印的SPEC,她狂乱暴走,继而现身御前会议。在犹大、世界(向井理 饰)、润(大岛优子 饰)的见证下,法蒂玛第三预言实现了。恐怖刺眼的蘑菇云在上空升起,成千上万的八尺乌遮天蔽日,被欲望所支配与荼毒的世界迎来了毁灭时刻。
  
  在命运的交叉点,当麻和焚流能否阻止世界的灭亡?

Format : Matroska
Format version : Version 4 / Version 2
File size : 7.96 GiB
Duration : 1h 31mn
Overall bit rate : 12.5 Mbps
Movie name : Jubowo @ WiKi
Encoded date : UTC 2014-07-12 02:45:23
Writing application : mkvmerge v6.8.0 (\'Theme for Great Cities\') 64bit built on Mar 2 2014 21:34:26
Writing library : libebml v1.3.0 + libmatroska v1.4.1
Attachment : Yes / Yes / Yes

Video
ID : 1
Format : AVC
Format/Info : Advanced Video Codec
Format profile : [email protected]
Format settings, CABAC : Yes
Format settings, ReFrames : 5 frames
Codec ID : V_MPEG4/ISO/AVC
Duration : 1h 31mn
Bit rate : 10.9 Mbps
Width : 1 920 pixels
Height : 800 pixels
Display aspect ratio : 2.40:1
Frame rate mode : Constant
Frame rate : 23.976 fps
Color space : YUV
Chroma subsampling : 4:2:0
Bit depth : 8 bits
Scan type : Progressive
Bits/(Pixel*Frame) : 0.296
Stream size : 6.84 GiB (86%)
Writing library : x264 core 129 r2245+704+36 8e61944 tMod+MixAQ [[email protected]:2:0 X86_64]
Encoding settings : cabac=1 / ref=5 / deblock=1:-3:-3 / analyse=0x3:0x133 / me=umh / subme=11 / psy=1 / fade_compensate=0.00 / psy_rd=1.05:0.10 / mixed_ref=1 / me_range=32 / chroma_me=1 / trellis=2 / 8x8dct=1 / cqm=0 / deadzone=21,11 / fast_pskip=0 / chroma_qp_offset=-3 / threads=18 / lookahead_threads=3 / sliced_threads=0 / nr=0 / decimate=0 / interlaced=0 / bluray_compat=0 / constrained_intra=0 / fgo=0 / bframes=8 / b_pyramid=2 / b_adapt=2 / b_bias=0 / direct=3 / weightb=1 / open_gop=0 / weightp=2 / keyint=250 / keyint_min=23 / scenecut=40 / intra_refresh=0 / rc_lookahead=80 / rc=2pass / mbtree=1 / bitrate=10902 / ratetol=1.0 / qcomp=0.70 / qpmin=0 / qpmax=69 / qpstep=4 / cplxblur=20.0 / qblur=0.5 / ip_ratio=1.40 / aq=3 / aq-strength=0.85 / aq-sensitivity=10.00 / aq-ifactor=1.00 / aq-pfactor=1.00 / aq-bfactor=1.00 / aq2=0
Language : Japanese
Default : Yes
Forced : No

Audio
ID : 2
Format : DTS
Format/Info : Digital Theater Systems
Mode : 16
Format settings, Endianness : Big
Codec ID : A_DTS
Duration : 1h 31mn
Bit rate mode : Constant
Bit rate : 1 509 Kbps
Channel(s) : 6 channels
Channel positions : Front: L C R, Side: L R, LFE
Sampling rate : 48.0 KHz
Bit depth : 16 bits
Compression mode : Lossy
Stream size : 987 MiB (12%)
Language : Japanese
Default : Yes
Forced : No

Text #1
ID : 3
Format : ASS
Codec ID : S_TEXT/ASS
Codec ID/Info : Advanced Sub Station Alpha
Compression mode : Lossless
Title : Simplified
Language : Chinese
Default : Yes
Forced : No

Text #2
ID : 4
Format : ASS
Codec ID : S_TEXT/ASS
Codec ID/Info : Advanced Sub Station Alpha
Compression mode : Lossless
Title : Traditional
Language : Chinese
Default : No
Forced : No

Menu
00:00:00.000 : en:00:00:00.000
00:01:50.985 : en:00:01:50.985
00:05:09.600 : en:00:05:09.600
00:08:15.077 : en:00:08:15.077
00:10:01.475 : en:00:10:01.475
00:15:56.580 : en:00:15:56.580
00:17:05.107 : en:00:17:05.107
00:19:55.986 : en:00:19:55.986
00:27:46.748 : en:00:27:46.748
00:29:14.586 : en:00:29:14.586
00:30:39.921 : en:00:30:39.921
00:39:05.301 : en:00:39:05.301
00:42:55.030 : en:00:42:55.030
00:53:37.631 : en:00:53:37.631
00:58:13.907 : en:00:58:13.907
01:14:52.112 : en:01:14:52.112
01:18:15.691 : en:01:18:15.691
01:25:19.113 : en:01:25:19.113





1 个附件 售价 大小 下载 时间

SPEC.Close.Reincarntion.2013.JAPANESE.1080p.BluRay.x264.DTS-WiKi.zip 0 金币 82.30K 340 次 13天前

#1楼
发帖时间:2020-10-18 11:16:59   |   回复数:1
kola13
武林盟主
感谢分享
13天前 #2楼
游客组