squallzhao
武林盟主

[2014] [欧美] [科幻] [BD-1080P] 2035禁忌时空 The.Forbidden.Dimensions.2013.1080p.BluRay.x264.DTS-FGT 6.56GB

-->

帖子完整标题:2035禁忌时空 The.Forbidden.Dimensions.2013.1080p.BluRay.x264.DTS-FGT 6.56GB



◎译  名 2035禁忌时空
◎片  名 The Forbidden Dimensions
◎年  代 2014
◎产  地 美国
◎类  别 科幻 / 惊悚 / 恐怖
◎语  言 英语
◎上映日期 
◎IMDb评分 1.7/10 from 460 users
◎IMDb链接 https://www.imdb.com/title/tt2413516/
◎豆瓣评分 /10 from 0 users
◎豆瓣链接 https://movie.douban.com/subject/25959142/
◎片  长 86分钟

◎标  签 恐怖 | 妖妖舞 | 奇幻 | 国外电影

◎简  介

  Jack Slade was born during a solar eclipse in the year 1980. 18 years later, he finds out he has the ability to travel into the future. He projects himself into the year 2035, where society has been destroyed by a fascist regiment of psychopathic doctors that rule the wastelands, creating deformed mutants with a serum synthesized from the flesh of dead aliens. Now Slade must travel back to the year 1998 to destroy a device known as the wavelength generator, which opened the dimensional gateways to these alien beings. With the help of an army of female outlaws and a sleazy detective, Slade re-connects with the star child Khadijah, who holds the key to stopping these tragic events from ever taking place.

Video
ID : 1
Format : AVC
Format/Info : Advanced Video Codec
Format profile : [email protected]
Format settings, CABAC : Yes
Format settings, ReFrames : 4 frames
Codec ID : V_MPEG4/ISO/AVC
Duration : 1h 26mn
Bit rate : 9 369 Kbps
Width : 1 920 pixels
Height : 1 080 pixels
Display aspect ratio : 16:9
Frame rate mode : Constant
Frame rate : 23.976 (24000/1001) fps
Original frame rate : 23.976 (23976/1000) fps
Color space : YUV
Chroma subsampling : 4:2:0
Bit depth : 8 bits
Scan type : Progressive
Bits/(Pixel*Frame) : 0.188
Stream size : 5.52 GiB (84%)
Writing library : x264 core 142 r2409 d6b4e63
Encoding settings : cabac=1 / ref=4 / deblock=1:0:0 / analyse=0x3:0x133 / me=umh / subme=8 / psy=1 / psy_rd=1.00:0.00 / mixed_ref=1 / me_range=16 / chroma_me=1 / trellis=1 / 8x8dct=1 / cqm=0 / deadzone=21,11 / fast_pskip=0 / chroma_qp_offset=-2 / threads=12 / lookahead_threads=2 / sliced_threads=0 / nr=0 / decimate=1 / interlaced=0 / bluray_compat=0 / constrained_intra=0 / bframes=3 / b_pyramid=2 / b_adapt=2 / b_bias=0 / direct=3 / weightb=1 / open_gop=0 / weightp=2 / keyint=250 / keyint_min=23 / scenecut=40 / intra_refresh=0 / rc_lookahead=50 / rc=2pass / mbtree=1 / bitrate=9369 / ratetol=1.0 / qcomp=0.60 / qpmin=0 / qpmax=69 / qpstep=4 / cplxblur=20.0 / qblur=0.5 / ip_ratio=1.40 / aq=1:1.00
Language : English
Default : Yes
Forced : No

Audio
ID : 2
Format : DTS
Format/Info : Digital Theater Systems
Mode : 16
Format settings, Endianness : Big
Codec ID : A_DTS
Duration : 1h 26mn
Bit rate mode : Constant
Bit rate : 1 509 Kbps
Channel(s) : 6 channels
Channel positions : Front: L C R, Side: L R, LFE
Sampling rate : 48.0 KHz
Frame rate : 93.750 fps (512 spf)
Bit depth : 24 bits
Compression mode : Lossy
Stream size : 931 MiB (14%)
Language : English
Default : No
Forced : No

Menu
00:00:00.000 : en:00:00:00.000
00:07:59.938 : en:00:07:59.938
00:16:39.999 : en:00:16:39.999
00:23:36.999 : en:00:23:36.999
00:32:11.972 : en:00:32:11.972
00:40:05.987 : en:00:40:05.987
00:49:42.938 : en:00:49:42.938
00:58:01.895 : en:00:58:01.895
01:06:09.924 : en:01:06:09.924
01:11:55.978 : en:01:11:55.978
01:19:01.862 : en:01:19:01.862
01:23:23.916 : en:01:23:23.916





1 个附件 售价 大小 下载 时间

The.Forbidden.Dimensions.2013.1080p.BluRay.x264.DTS-FGT.zip 0 金币 67.05K 238 次 13天前

#1楼
发帖时间:2020-10-18 10:27:57   |   回复数:0
游客组