q3r3
武林高手

[更 早] [欧美] [其他] [BD-1080P] 细细的蓝线/一线之差 The.Thin.Blue.Line.1988.1080p.BluRay.x264-USURY 7.64GB

-->

帖子完整标题:细细的蓝线/一线之差 The.Thin.Blue.Line.1988.1080p.BluRay.x264-USURY 7.64GB



◎译  名 细细的蓝线 / 一线之差(港) / 正义难伸(台) / 细蓝线
◎片  名 The Thin Blue Line
◎年  代 1988
◎产  地 美国
◎类  别 纪录片
◎语  言 英语
◎上映日期 1988-08-25
◎IMDb评分 8.0/10 from 21064 users
◎IMDb链接 https://www.imdb.com/title/tt0096257
◎豆瓣评分 8.1/10 from 3240 users
◎豆瓣链接 https://movie.douban.com/subject/1296388/
◎片  长 103 分钟
◎导  演 Errol Morris
◎编  剧 Errol Morris
◎主  演 Randall Adams
      David Harris
      Gus Rose


◎标  签 纪录片 | 美国 | 犯罪 | 埃罗尔·莫里斯 | 1988 | 美国电影 | Documentary | Errol_Morris

◎简  介

  本片采用了事件重现的方法再现了1976年美国得克萨斯州达拉斯市一起枪杀警察案。导演埃罗尔?莫里斯(Errol Morris)11年后采访了被判死刑、后转终身监禁的犯罪嫌疑人兰道?亚当姆斯(Randall Adams)、指证亚当姆斯的惯犯大卫?哈里斯(David Harris)、当年案件审判的三位证人米勒夫妇和麦克?兰道(Michael Randall),以及参与此案侦破与审判的警察、法官与律师们。通过不同人物对案件发生情形不同角度的描述,莫里斯成功证实了亚当姆斯的冤屈,并借片中一位公诉员之口点名警察是区分一个民主社会与极权的“细蓝线”。
  此片的公映在美国引起极大反响。德克萨斯罪犯申诉庭推翻了对亚当姆斯的判决。由于达拉斯拒绝对此案进行重审,亚当姆斯终于1989年被无罪释放,后成为积极反对死刑的社会活动家。本片也成为美国纪录片史上极为重要的一部,赢得国际纪录片协会大奖、美国国家影评人协会奖,并入选美国国家电影保护局保护名单。

Video
ID : 1
Format : AVC
Format/Info : Advanced Video Codec
Format profile : [email protected]
Format settings : CABAC / 4 Ref Frames
Format settings, CABAC : Yes
Format settings, Reference frames : 4 frames
Codec ID : V_MPEG4/ISO/AVC
Duration : 1 h 41 min
Bit rate : 9 262 kb/s
Width : 1 920 pixels
Height : 1 080 pixels
Display aspect ratio : 16:9
Frame rate mode : Constant
Frame rate : 23.976 FPS
Color space : YUV
Chroma subsampling : 4:2:0
Bit depth : 8 bits
Scan type : Progressive
Bits/(Pixel*Frame) : 0.186
Stream size : 6.57 GiB (86%)
Writing library : x264 core 146 r2538 121396c
Encoding settings : cabac=1 / ref=4 / deblock=1:0:0 / analyse=0x3:0x133 / me=umh / subme=7 / psy=1 / psy_rd=1.00:0.00 / mixed_ref=1 / me_range=16 / chroma_me=1 / trellis=1 / 8x8dct=1 / cqm=0 / deadzone=21,11 / fast_pskip=0 / chroma_qp_offset=-2 / threads=60 / lookahead_threads=8 / sliced_threads=0 / nr=0 / decimate=1 / interlaced=0 / bluray_compat=0 / constrained_intra=0 / bframes=3 / b_pyramid=2 / b_adapt=2 / b_bias=0 / direct=3 / weightb=1 / open_gop=0 / weightp=2 / keyint=250 / keyint_min=23 / scenecut=40 / intra_refresh=0 / rc_lookahead=50 / rc=2pass / mbtree=1 / bitrate=9262 / ratetol=1.0 / qcomp=0.60 / qpmin=0 / qpmax=69 / qpstep=4 / cplxblur=20.0 / qblur=0.5 / ip_ratio=1.40 / aq=1:1.00
Language : English
Default : Yes
Forced : No

Audio
ID : 2
Format : DTS
Format/Info : Digital Theater Systems
Codec ID : A_DTS
Duration : 1 h 41 min
Bit rate mode : Constant
Bit rate : 1 509 kb/s
Channel(s) : 2 channels
Channel layout : Lt Rt
Sampling rate : 48.0 kHz
Frame rate : 93.750 FPS (512 SPF)
Bit depth : 24 bits
Compression mode : Lossy
Stream size : 1.07 GiB (14%)
Language : English
Default : Yes
Forced : No

Menu
00:00:00.000 : en:00:00:00.000
00:06:10.996 : en:00:06:10.996
00:09:43.666 : en:00:09:43.666
00:12:53.022 : en:00:12:53.022
00:16:15.391 : en:00:16:15.391
00:19:43.808 : en:00:19:43.808
00:30:00.924 : en:00:30:00.924
00:32:38.623 : en:00:32:38.623
00:41:55.722 : en:00:41:55.722
00:47:56.791 : en:00:47:56.791
00:57:39.790 : en:00:57:39.790
01:01:34.107 : en:01:01:34.107
01:07:49.065 : en:01:07:49.065
01:12:54.579 : en:01:12:54.579
01:17:36.819 : en:01:17:36.819
01:26:06.870 : en:01:26:06.870
01:30:15.035 : en:01:30:15.035
01:34:27.745 : en:01:34:27.745





1 个附件 售价 大小 下载 时间

The.Thin.Blue.Line.1988.1080p.BluRay.x264-USURY.zip 0 金币 38.86K 252 次 9天前

#1楼
发帖时间:2020-08-02 09:42:18   |   回复数:0
游客组