coor
一代宗师

[更 早] [欧美] [其他] [BD-1080P] 西部新天地/三虎平西 The.Way.West.1967.1080p.BluRay.x264.DTS-FGT 9.19GB

-->



◎译  名 西部新天地 / 三虎平西
◎片  名 The Way West
◎年  代 1967
◎产  地 美国
◎类  别 西部 / 冒险
◎语  言 英语
◎上映日期 1967-05-24
◎IMDb评分 6.2/10 from 2382 users
◎IMDb链接 https://www.imdb.com/title/tt0062479
◎豆瓣评分 0/10 from 0 users
◎豆瓣链接 https://movie.douban.com/subject/1304355/
◎片  长 122 分钟
◎导  演 安德鲁·麦克拉格伦 Andrew V. McLaglen
◎编  剧 A·B·小格思里 A.B. Guthrie Jr. / 本·马多 Ben Maddow / Mitch Lindemann
◎主  演 柯克·道格拉斯 Kirk Douglas
      罗伯特·米彻姆 Robert Mitchum
      理查德·威德马克 Richard Widmark
      莎莉·菲尔德 Sally Field
      洛拉·奥尔布赖特 Lola Albright
      杰克·伊莱姆 Jack Elam


◎标  签 西部片 | 美国 | 罗伯特·米彻姆 | 警匪 | 西部 | 经典老片 | 理查德·威德马克 | 犯罪

◎简  介

  In 1956 Hecht-Hill-Lancaster productions announced plans to film "The Way West." It was to be adapted by Clifford Odets and was to star Burt Lancaster, James Stewart, and hopefully Gary Cooper. That version was not made.
  There was a minor helicopter crash on the set.
  Robert Mitchum and Richard Widmark reportedly did not get along with Kirk Douglas because of his tendency to usurp control of the project from the director.
Video
ID : 1
Format : AVC
Format/Info : Advanced Video Codec
Format profile : [email protected]
Format settings, CABAC : Yes
Format settings, ReFrames : 5 frames
Codec ID : V_MPEG4/ISO/AVC
Duration : 2h 2mn
Bit rate : 10.0 Mbps
Width : 1 920 pixels
Height : 816 pixels
Display aspect ratio : 2.35:1
Frame rate mode : Constant
Frame rate : 23.976 fps
Color space : YUV
Chroma subsampling : 4:2:0
Bit depth : 8 bits
Scan type : Progressive
Bits/(Pixel*Frame) : 0.266
Stream size : 8.35 GiB (91%)
Writing library : x264 core 129 r2245 bc13772
Encoding settings : cabac=1 / ref=5 / deblock=1:0:0 / analyse=0x3:0x113 / me=umh / subme=7 / psy=1 / psy_rd=1.00:0.00 / mixed_ref=1 / me_range=16 / chroma_me=1 / trellis=1 / 8x8dct=1 / cqm=0 / deadzone=21,11 / fast_pskip=0 / chroma_qp_offset=-2 / threads=12 / lookahead_threads=2 / sliced_threads=0 / nr=0 / decimate=1 / interlaced=0 / bluray_compat=0 / constrained_intra=0 / bframes=3 / b_pyramid=2 / b_adapt=1 / b_bias=0 / direct=1 / weightb=1 / open_gop=0 / weightp=2 / keyint=250 / keyint_min=23 / scenecut=40 / intra_refresh=0 / rc_lookahead=40 / rc=2pass / mbtree=1 / bitrate=10005 / ratetol=1.0 / qcomp=0.60 / qpmin=0 / qpmax=69 / qpstep=4 / cplxblur=20.0 / qblur=0.5 / ip_ratio=1.40 / aq=1:1.00
Language : English
Default : No
Forced : No

Audio
ID : 2
Format : DTS
Format/Info : Digital Theater Systems
Mode : 16
Format settings, Endianness : Big
Codec ID : A_DTS
Duration : 2h 2mn
Bit rate mode : Constant
Bit rate : 768 Kbps
Channel(s) : 2 channels
Channel positions : Front: L R
Sampling rate : 48.0 KHz
Frame rate : 93.750 fps (512 spf)
Bit depth : 16 bits
Compression mode : Lossy
Stream size : 670 MiB (7%)
Language : English
Default : Yes
Forced : No





1 个附件 售价 大小 下载 时间

The.Way.West.1967.1080p.BluRay.x264.DTS-FGT.torrent 0 金币 92.46K 392 次 9天前

#1楼
发帖时间:2020-06-30 21:52:26   |   回复数:1
911degrees
隐世仙人♂
非常感谢,谢谢分享
9天前 #2楼
游客组