coor
一代宗师

[2013] [欧美] [剧情] [BD-1080P] 救赎/A的异性恋 Straight.As.2013.1080p.BluRay.x264.DTS-FGT 3.09GB

-->



◎译  名 救赎 / A的异性恋 / Straight As
◎片  名 Straight A's
◎年  代 2013
◎产  地 美国
◎类  别 剧情 / 喜剧
◎语  言 英语
◎上映日期 2013-01-16
◎IMDb评分 5.7/10 from 4316 users
◎IMDb链接 https://www.imdb.com/title/tt2024506
◎豆瓣评分 6.1/10 from 339 users
◎豆瓣链接 https://movie.douban.com/subject/6875599/
◎片  长 88分钟
◎导  演 James Cox
◎编  剧 David Cole
◎主  演 瑞恩·菲利普 Ryan Phillippe
      安娜·帕奎因 Anna Paquin
      卢克·威尔逊 Luke Wilson
      莱利·托马斯·斯图瓦特 Riley Thomas Stewart
      乌苏拉·帕克 Ursula Parker
      泰丝·哈珀 Tess Harper
      鲍沃斯·布斯 Powers Boothe
      克里斯蒂娜·坎贝尔 Christa Campbell
      Josh Meyers
      乔恩·马克 Jon Mack
      兰斯·E·尼克尔斯 Lance E. Nichols
      莱蒂西亚·吉门尼斯 Leticia Jimenez
      惠特尼·阿贝勒 Whitney Able


◎标  签 家庭 | 美国 | 剧情 | 美国电影 | 成长 | 2012 | 爱情 | 电影

◎简  介

  一个改过自新的吸毒者史葛,回到他的家乡,却使得他身边每个人的生活陷入一片混乱之中.
Video
ID : 1
Format : AVC
Format/Info : Advanced Video Codec
Format profile : [email protected]
Format settings, CABAC : Yes
Format settings, ReFrames : 5 frames
Codec ID : V_MPEG4/ISO/AVC
Duration : 1h 28mn
Bit rate : 3 407 Kbps
Width : 1 920 pixels
Height : 800 pixels
Display aspect ratio : 2.40:1
Frame rate mode : Constant
Frame rate : 23.976 (24000/1001) fps
Color space : YUV
Chroma subsampling : 4:2:0
Bit depth : 8 bits
Scan type : Progressive
Bits/(Pixel*Frame) : 0.093
Stream size : 2.10 GiB (68%)
Writing library : x264 core 140 r2377 1ca7bb9
Encoding settings : cabac=1 / ref=5 / deblock=1:0:0 / analyse=0x3:0x113 / me=umh / subme=7 / psy=1 / psy_rd=1.00:0.15 / mixed_ref=1 / me_range=16 / chroma_me=1 / trellis=1 / 8x8dct=1 / cqm=0 / deadzone=21,11 / fast_pskip=0 / chroma_qp_offset=-3 / threads=6 / lookahead_threads=1 / sliced_threads=0 / nr=0 / decimate=1 / interlaced=0 / bluray_compat=0 / constrained_intra=0 / bframes=3 / b_pyramid=2 / b_adapt=1 / b_bias=0 / direct=1 / weightb=1 / open_gop=0 / weightp=2 / keyint=250 / keyint_min=23 / scenecut=40 / intra_refresh=0 / rc_lookahead=40 / rc=crf / mbtree=1 / crf=20.0 / qcomp=0.60 / qpmin=0 / qpmax=69 / qpstep=4 / ip_ratio=1.40 / aq=1:1.00
Language : English
Default : Yes
Forced : No

Audio
ID : 2
Format : DTS
Format/Info : Digital Theater Systems
Mode : 16
Format settings, Endianness : Big
Codec ID : A_DTS
Duration : 1h 28mn
Bit rate mode : Constant
Bit rate : 1 509 Kbps
Channel(s) : 6 channels
Channel positions : Front: L C R, Side: L R, LFE
Sampling rate : 48.0 KHz
Frame rate : 93.750 fps (512 spf)
Bit depth : 24 bits
Compression mode : Lossy
Stream size : 953 MiB (30%)
Language : English
Default : Yes
Forced : No





1 个附件 售价 大小 下载 时间

Straight.As.2013.1080p.BluRay.x264.DTS-FGT.torrent 0 金币 62.48K 224 次 9天前

#1楼
发帖时间:2020-06-30 21:45:34   |   回复数:1
911degrees
隐世仙人♂
非常感谢,谢谢分享
9天前 #2楼
游客组