coor
一代宗师

[2006] [其他] [剧情] [BD-1080P] 老虎的尾巴 The.Tigers.Tail.2006.1080p.BluRay.x264.DTS-FGT 6.82GB

-->



◎译  名 老虎的尾巴
◎片  名 The Tiger's Tail
◎年  代 2006
◎产  地 爱尔兰
◎类  别 剧情 / 喜剧 / 悬疑 / 惊悚 / 犯罪
◎语  言 英语
◎上映日期 2006-09-26
◎IMDb评分 5.8/10 from 1244 users
◎IMDb链接 https://www.imdb.com/title/tt0490499
◎豆瓣评分 6.7/10 from 55 users
◎豆瓣链接 https://movie.douban.com/subject/1899302/
◎片  长 107 分钟
◎导  演 约翰·保曼 John Boorman
◎编  剧 约翰·保曼 John Boorman
◎主  演 Angeline Ball
      Kim Cattrall
      布莱丹·格里森 Brendan Gleeson
      布莱恩·格里森 Brian Gleeson


◎标  签 爱尔兰 | 剧情 | 2006 | 悬疑 | 表演 | 欧洲 | 爱尔兰电影 | 竞争

◎简  介

  一个努力工作的爱尔兰人把他大部分责任放在一边以保证他住得舒适。 他已经忽视他的妻子, 儿子和他的健康,当他的商业对手与他展开竞争时,耗尽其所有精力以至崩溃。 渐渐的他开始看见不同版本的自己,他开始怀疑自己的心智 ...
  男主角一人扮演两个角色,一方面他是地产大亨,另一方面,他是大亨的孪生弟弟,意图夺取哥哥的身份,可哥哥一直不知道有个孪生弟弟。

◎获奖情况

  第54届圣塞巴斯蒂安国际电影节(2006)
  金贝壳奖(提名) 约翰·保曼
Video
ID : 1
Format : AVC
Format/Info : Advanced Video Codec
Format profile : [email protected]
Format settings, CABAC : Yes
Format settings, ReFrames : 4 frames
Codec ID : V_MPEG4/ISO/AVC
Duration : 1h 47mn
Bit rate : 7 574 Kbps
Width : 1 920 pixels
Height : 1 040 pixels
Display aspect ratio : 1.85:1
Frame rate mode : Constant
Frame rate : 23.976 (24000/1001) fps
Color space : YUV
Chroma subsampling : 4:2:0
Bit depth : 8 bits
Scan type : Progressive
Bits/(Pixel*Frame) : 0.158
Stream size : 5.55 GiB (81%)
Writing library : x264 core 130 r2273 b3065e6
Encoding settings : cabac=1 / ref=4 / deblock=1:-1:-1 / analyse=0x3:0x133 / me=umh / subme=7 / psy=1 / psy_rd=1.00:0.15 / mixed_ref=1 / me_range=16 / chroma_me=1 / trellis=1 / 8x8dct=1 / cqm=0 / deadzone=21,11 / fast_pskip=0 / chroma_qp_offset=-3 / threads=9 / lookahead_threads=1 / sliced_threads=0 / nr=0 / decimate=1 / interlaced=0 / bluray_compat=0 / constrained_intra=0 / bframes=3 / b_pyramid=2 / b_adapt=1 / b_bias=0 / direct=1 / weightb=1 / open_gop=0 / weightp=2 / keyint=250 / keyint_min=23 / scenecut=40 / intra_refresh=0 / rc_lookahead=40 / rc=2pass / mbtree=1 / bitrate=7574 / ratetol=1.0 / qcomp=0.60 / qpmin=0 / qpmax=69 / qpstep=4 / cplxblur=20.0 / qblur=0.5 / ip_ratio=1.40 / aq=1:1.00
Default : Yes
Forced : No

Audio
ID : 2
Format : DTS
Format/Info : Digital Theater Systems
Mode : 16
Format settings, Endianness : Big
Codec ID : A_DTS
Duration : 1h 47mn
Bit rate mode : Constant
Bit rate : 1 509 Kbps
Channel(s) : 6 channels
Channel positions : Front: L C R, Side: L R, LFE
Sampling rate : 48.0 KHz
Frame rate : 93.750 fps (512 spf)
Bit depth : 24 bits
Compression mode : Lossy
Stream size : 1.13 GiB (17%)
Language : English
Default : Yes
Forced : No





1 个附件 售价 大小 下载 时间

The.Tigers.Tail.2006.1080p.BluRay.x264.DTS-FGT.torrent 0 金币 68.78K 161 次 9天前

#1楼
发帖时间:2020-06-30 21:41:03   |   回复数:1
911degrees
隐世仙人♂
非常感谢,谢谢分享
9天前 #2楼
游客组