coor
一代宗师

[2013] [其他] [剧情] [BD-1080P] 最佳出价 The.Best.Offer.2013.1080p.BluRay.x264.DTS-FGT 9.78GB

-->



◎译  名 最佳出价 / The Best Offer / 寂寞拍卖师(台) / 最佳买卖
◎片  名 La migliore offerta
◎年  代 2013
◎产  地 意大利
◎类  别 剧情 / 爱情 / 悬疑
◎语  言 英语
◎上映日期 2013-01-01(意大利)
◎IMDb评分 7.8/10 from 104168 users
◎IMDb链接 https://www.imdb.com/title/tt1924396
◎豆瓣评分 8.4/10 from 121741 users
◎豆瓣链接 https://movie.douban.com/subject/7059671/
◎片  长 131分钟
◎导  演 朱塞佩·托纳多雷 Giuseppe Tornatore
◎编  剧 朱塞佩·托纳多雷 Giuseppe Tornatore
◎主  演 杰弗里·拉什 Geoffrey Rush
      吉姆·斯特吉斯 Jim Sturgess
      西尔维娅·侯克斯 Sylvia Hoeks
      唐纳德·萨瑟兰 Donald Sutherland
      菲利普·杰克森 Philip Jackson
      德尔莫特·克劳利 Dermot Crowley
      Kiruna Stamell
      莉亚·科贝德 Liya Kebede
      Sean Buchanan


◎标  签 悬疑 | 意大利 | 剧情 | 爱情 | 人性 | 朱塞佩·托纳多雷 | 意大利电影 | 心理

◎简  介

  性情古怪的奥德曼先生(杰弗里·拉什 Geoffrey Rush 饰)是一家顶级艺术品拍卖行的鉴赏拍卖师,在他几十年的职业生涯中几乎从未失手,他最大的爱好就是收藏各种时期的女人肖像画。比利(唐纳德·萨瑟兰 Donald Sutherland 饰)帮助他用低价拍到心仪的画作,而年轻人罗伯特(吉姆·斯特吉斯 Jim Sturgess)则帮助他用技术手段鉴定古董真伪。直到一天,一个神秘的女主顾克莱尔(西尔维娅·侯克斯 Sylvia Hoeks 饰)带着大批的古董遗产走进了他的生活,克莱尔声称患有广场恐惧症因此从不露面,但是这种特殊的交流方式却让奥德曼渐渐着迷,他甚至求助于罗伯特追求女人的方法。终于有一天奥德曼放弃了自己原有的生活,可是一个惊天的阴谋正在悄悄等待着他。

◎获奖情况

  第26届欧洲电影奖(2013)
  观众选择奖(提名) 朱塞佩·托纳多雷
  最佳影片(提名) 朱塞佩·托纳多雷
  最佳导演(提名) 朱塞佩·托纳多雷
  最佳编剧(提名) 朱塞佩·托纳多雷
  最佳配乐 恩尼奥·莫里康内

  第57届意大利大卫奖(2013)
  青年大卫奖 朱塞佩·托纳多雷
  最佳影片 阿尔图罗·帕利亚 / 伊莎贝拉·科库扎 / 朱塞佩·托纳多雷
  最佳导演 朱塞佩·托纳多雷
  最佳剧本(提名) 朱塞佩·托纳多雷
  最佳制片人(提名) 阿尔图罗·帕利亚 / 伊莎贝拉·科库扎
  最佳摄影(提名) 法比奥·扎马里翁
  最佳音乐 恩尼奥·莫里康内
  最佳美术设计 毛里齐奥·萨巴蒂尼 / 拉法埃拉·乔凡内蒂
  最佳服装设计 Maurizio Millenotti
  最佳化妆(提名) 路易吉·洛切蒂
  最佳发型设计(提名) Stefano Ceccarelli
  最佳剪辑(提名) 马西莫·夸各里安
  最佳音效(提名) Gilberto Martinelli

  第4届豆瓣电影鑫像奖(2014)
  鑫豆单元 最容易忽视的好电影(提名)
Video
ID : 1
Format : AVC
Format/Info : Advanced Video Codec
Format profile : [email protected]
Format settings, CABAC : Yes
Format settings, ReFrames : 4 frames
Codec ID : V_MPEG4/ISO/AVC
Duration : 2h 10mn
Bit rate : 9 200 Kbps
Width : 1 920 pixels
Height : 800 pixels
Display aspect ratio : 2.40:1
Frame rate mode : Constant
Frame rate : 24.000 fps
Color space : YUV
Chroma subsampling : 4:2:0
Bit depth : 8 bits
Scan type : Progressive
Bits/(Pixel*Frame) : 0.250
Stream size : 8.21 GiB (84%)
Writing library : x264 core 125 r2200 999b753
Encoding settings : cabac=1 / ref=3 / deblock=1:0:0 / analyse=0x3:0x113 / me=umh / subme=6 / psy=1 / psy_rd=1.00:0.00 / mixed_ref=1 / me_range=12 / chroma_me=1 / trellis=2 / 8x8dct=1 / cqm=0 / deadzone=21,11 / fast_pskip=1 / chroma_qp_offset=-2 / threads=6 / lookahead_threads=1 / sliced_threads=0 / nr=0 / decimate=1 / interlaced=0 / bluray_compat=0 / constrained_intra=0 / bframes=3 / b_pyramid=2 / b_adapt=2 / b_bias=0 / direct=3 / weightb=1 / open_gop=0 / weightp=2 / keyint=240 / keyint_min=24 / scenecut=40 / intra_refresh=0 / rc_lookahead=40 / rc=2pass / mbtree=1 / bitrate=9200 / ratetol=1.0 / qcomp=0.50 / qpmin=10 / qpmax=51 / qpstep=4 / cplxblur=20.0 / qblur=0.5 / vbv_maxrate=24000 / vbv_bufsize=24000 / nal_hrd=none / ip_ratio=1.10 / aq=1:1.00
Language : English
Default : Yes
Forced : No

Audio
ID : 2
Format : DTS
Format/Info : Digital Theater Systems
Mode : 16
Format settings, Endianness : Big
Codec ID : A_DTS
Duration : 2h 10mn
Bit rate mode : Constant
Bit rate : 1 509 Kbps
Channel(s) : 6 channels
Channel positions : Front: L C R, Side: L R, LFE
Sampling rate : 48.0 KHz
Bit depth : 24 bits
Compression mode : Lossy
Stream size : 1.38 GiB (14%)
Language : English
Default : Yes
Forced : No

Text
ID : 3
Format : PGS
Muxing mode : zlib
Codec ID : S_HDMV/PGS
Codec ID/Info : Picture based subtitle format used on BDs/HD-DVDs
Language : English
Default : Yes
Forced : No





1 个附件 售价 大小 下载 时间

The.Best.Offer.2013.1080p.BluRay.x264.DTS-FGT.torrent 0 金币 98.38K 658 次 10天前

#1楼
发帖时间:2020-06-30 11:15:49   |   回复数:3
911degrees
隐世仙人♂
非常感谢,谢谢分享
10天前 #2楼
jokingcheung
一代宗师
谢谢分享
9天前 #3楼
liyouchai
隐世仙人♂
谢谢楼主分享资源
8天前 #4楼
游客组