coor
一代宗师

[更 早] [其他] [剧情] [4K-原盘] 欲望号快车/撞车 Crash.1996.UNRATED.2160p.BluRay.REMUX.HEVC.DTS-HD.MA.5.1-FGT 53.94GB

-->

帖子完整标题:欲望号快车/撞车 Crash.1996.UNRATED.2160p.BluRay.REMUX.HEVC.DTS-HD.MA.5.1-FGT 53.94GB




◎译  名 欲望号快车 / 撞车 / 超速性追缉(台)
◎片  名 Crash
◎年  代 1996
◎产  地 加拿大 / 英国
◎类  别 剧情
◎语  言 英语 / 瑞典语
◎上映日期 1996-05-17(戛纳电影节) / 1996-10-04(加拿大)
◎IMDb评分 6.4/10 from 49760 users
◎IMDb链接 https://www.imdb.com/title/tt0115964
◎豆瓣评分 6.9/10 from 8212 users
◎豆瓣链接 https://movie.douban.com/subject/1292682/
◎片  长 100分钟
◎导  演 大卫·柯南伯格 David Cronenberg
◎编  剧 J·G·巴拉德 J.G. Ballard / 大卫·柯南伯格 David Cronenberg
◎主  演 詹姆斯·斯派德 James Spader
      霍利·亨特 Holly Hunter
      伊莱亚斯·科泰斯 Elias Koteas
      黛博拉·卡拉·安格 Deborah Kara Unger
      罗姗娜·阿奎特 Rosanna Arquette
      彼得·麦克内尔 Peter MacNeill
      Yolande Julian
      Cheryl Swarts
      朱达·卡茨 Judah Katz
      妮基·瓜达尼 Nicky Guadagni
      Ronn Sarosiak
      博伊德·班克斯 Boyd Banks
      Markus Parilo
      Alice Poon
      John Stoneham Jr.
      大卫·柯南伯格 David Cronenberg
      乔丹 Jordan


◎标  签 情色 | 加拿大 | 1996 | 剧情 | 英国 | 美国 | 惊悚 | 人性

◎简  介

  电影制片人詹姆斯(James Spader 饰)沉迷于性事,在女友凯瑟琳之外尚有不少情人。一次开车回家的路上他与另一辆车相撞,詹姆斯腿部重伤,对面车中的夫妻两人则丈夫死亡妻子海伦(Holly Hunter 饰)负伤,詹姆斯在报废车场偶遇海伦,两人由此结识,不久海伦带他参观了由医生沃甘主持的撞车活动,这些爱好者热衷用真实的撞车还原某些事故,詹姆斯进入了一个匪夷所思的圈子。沃甘身份神秘,宣扬撞车是释放自我的有效途径,为此不惜以身犯险。随着詹姆斯与沃甘的交往不断加深,两人终于在车上发生了关系,而随后沃甘驾车撞击詹姆斯与凯瑟琳却致使自己死亡。詹姆斯大难不死后又驾驶者一辆废旧汽车撞向了凯瑟琳……
  本片获1996年加拿大吉尼奖导演奖等多项褒奖。

◎获奖情况

  第49届戛纳电影节(1996)
  主竞赛单元 金棕榈奖(提名) 大卫·柯南伯格
  主竞赛单元 评审团特别奖 大卫·柯南伯格
Video
ID : 1
ID in the original source medium : 4113 (0x1011)
Format : HEVC
Format/Info : High Efficiency Video Coding
Format profile : Main [email protected]@High
HDR format : SMPTE ST 2086, HDR10 compatible
Codec ID : V_MPEGH/ISO/HEVC
Duration : 1 h 39 min
Bit rate : 69.5 Mb/s
Width : 3 840 pixels
Height : 2 160 pixels
Display aspect ratio : 16:9
Frame rate mode : Constant
Frame rate : 23.976 (24000/1001/189150) FPS
Color space : YUV
Chroma subsampling : 4:2:0 (Type 2)
Bit depth : 10 bits
Bits/(Pixel*Frame) : 0.350
Stream size : 48.5 GiB (90%)
Title : Crash.1996.UNRATED.2160p.BluRay.REMUX.HEVC.DTS-HD.MA.5.1-FGT
Language : English
Default : No
Forced : No
Color range : Limited
Color primaries : BT.2020
Transfer characteristics : PQ
Matrix coefficients : BT.2020 non-constant
Mastering display color primaries : Display P3
Mastering display luminance : min: 0.0001 cd/m2, max: 1000 cd/m2
Maximum Content Light Level : 1000 cd/m2
Maximum Frame-Average Light Level : 400 cd/m2
Original source medium : Blu-ray

Audio #1
ID : 2
ID in the original source medium : 4354 (0x1102)
Format : DTS XLL
Format/Info : Digital Theater Systems
Commercial name : DTS-HD Master Audio
Codec ID : A_DTS
Duration : 1 h 39 min
Bit rate mode : Variable
Bit rate : 2 090 kb/s
Channel(s) : 6 channels
Channel layout : C L R Ls Rs LFE
Sampling rate : 48.0 kHz
Frame rate : 93.750 FPS (512 SPF)
Bit depth : 16 bits
Compression mode : Lossless
Stream size : 1.46 GiB (3%)
Title : Crash.1996.UNRATED.2160p.BluRay.REMUX.HEVC.DTS-HD.MA.5.1-FGT
Language : English
Default : Yes
Forced : No
Original source medium : Blu-ray

Audio #2
ID : 3
ID in the original source medium : 4355 (0x1103)
Format : DTS XLL
Format/Info : Digital Theater Systems
Commercial name : DTS-HD Master Audio
Codec ID : A_DTS
Duration : 1 h 39 min
Bit rate mode : Variable
Bit rate : 1 752 kb/s
Channel(s) : 2 channels
Channel layout : L R
Sampling rate : 48.0 kHz
Frame rate : 93.750 FPS (512 SPF)
Bit depth : 16 bits
Compression mode : Lossless
Stream size : 1.22 GiB (2%)
Title : Crash.1996.UNRATED.2160p.BluRay.REMUX.HEVC.DTS-HD.MA.5.1-FGT
Language : English
Default : No
Forced : No
Original source medium : Blu-ray

Audio #3
ID : 4
ID in the original source medium : 4352 (0x1100)
Format : DTS XLL
Format/Info : Digital Theater Systems
Commercial name : DTS-HD Master Audio
Codec ID : A_DTS
Duration : 1 h 39 min
Bit rate mode : Variable
Bit rate : 2 243 kb/s
Channel(s) : 6 channels
Channel layout : C L R Ls Rs LFE
Sampling rate : 48.0 kHz
Frame rate : 93.750 FPS (512 SPF)
Bit depth : 16 bits
Compression mode : Lossless
Stream size : 1.56 GiB (3%)
Title : Crash.1996.UNRATED.2160p.BluRay.REMUX.HEVC.DTS-HD.MA.5.1-FGT
Language : German
Default : No
Forced : No
Original source medium : Blu-ray

Audio #4
ID : 5
ID in the original source medium : 4353 (0x1101)
Format : DTS XLL
Format/Info : Digital Theater Systems
Commercial name : DTS-HD Master Audio
Codec ID : A_DTS
Duration : 1 h 39 min
Bit rate mode : Variable
Bit rate : 1 732 kb/s
Channel(s) : 2 channels
Channel layout : L R
Sampling rate : 48.0 kHz
Frame rate : 93.750 FPS (512 SPF)
Bit depth : 16 bits
Compression mode : Lossless
Stream size : 1.21 GiB (2%)
Title : Crash.1996.UNRATED.2160p.BluRay.REMUX.HEVC.DTS-HD.MA.5.1-FGT
Language : German
Default : No
Forced : No
Original source medium : Blu-ray

Text #1
ID : 6
Format : UTF-8
Codec ID : S_TEXT/UTF8
Codec ID/Info : UTF-8 Plain Text
Duration : 1 h 30 min
Bit rate : 21 b/s
Count of elements : 433
Stream size : 14.0 KiB (0%)
Title : English-SRT
Language : English
Default : Yes
Forced : No

Text #2
ID : 7
ID in the original source medium : 4769 (0x12A1)
Format : PGS
Muxing mode : zlib
Codec ID : S_HDMV/PGS
Codec ID/Info : Picture based subtitle format used on BDs/HD-DVDs
Duration : 1 h 30 min
Bit rate : 13.9 kb/s
Count of elements : 868
Stream size : 8.98 MiB (0%)
Title : English-PGS
Language : English
Default : No
Forced : No
Original source medium : Blu-ray

Text #3
ID : 8
ID in the original source medium : 4768 (0x12A0)
Format : PGS
Muxing mode : zlib
Codec ID : S_HDMV/PGS
Codec ID/Info : Picture based subtitle format used on BDs/HD-DVDs
Duration : 1 h 30 min
Bit rate : 16.0 kb/s
Count of elements : 814
Stream size : 10.3 MiB (0%)
Title : German-PGS
Language : German
Default : No
Forced : No
Original source medium : Blu-ray

Menu
00:00:00.000 : en:Chapter 01
00:02:46.916 : en:Chapter 02
00:06:46.906 : en:Chapter 03
00:11:00.117 : en:Chapter 04
00:16:08.258 : en:Chapter 05
00:20:09.750 : en:Chapter 06
00:25:23.647 : en:Chapter 07
00:33:52.905 : en:Chapter 08
00:36:54.378 : en:Chapter 09
00:40:40.896 : en:Chapter 10
00:50:50.088 : en:Chapter 11
00:58:03.313 : en:Chapter 12
01:04:39.208 : en:Chapter 13
01:11:25.114 : en:Chapter 14
01:17:03.285 : en:Chapter 15
01:24:38.073 : en:Chapter 16
01:30:27.964 : en:Chapter 17
01:36:14.351 : en:Chapter 18





1 个附件 售价 大小 下载 时间

Crash.1996.UNRATED.2160p.BluRay.REMUX.HEVC.DTS-HD.MA.5.1-FGT.torrent 0 金币 135.41K 595 次 8天前

#1楼
发帖时间:2020-05-23 16:13:52   |   回复数:1
911degrees
隐世仙人♂
非常感谢,谢谢分享
7天前 #2楼
游客组