coor
一代宗师

[2018] [其他] [剧情] [BD-1080P] 约翰·多诺万的死与生/多诺万先生的生与死 The.Death.and.Life.of.John.F.Donovan.2018.1080p.BluRay.x264

-->

帖子完整标题:约翰·多诺万的死与生/多诺万先生的生与死 The.Death.and.Life.of.John.F.Donovan.2018.1080p.BluRay.x264-USURY 8.77GB




◎译  名 约翰·多诺万的死与生 / 多诺万先生的生与死 / 约翰·F·多诺万的生与死 / 约翰·唐纳文的生与死
◎片  名 The Death And Life of John F. Donovan
◎年  代 2018
◎产  地 英国 / 加拿大
◎类  别 剧情
◎语  言 英语
◎上映日期 2018-09-10(多伦多电影节)
◎IMDb评分 6.1/10 from 3902 users
◎IMDb链接 https://www.imdb.com/title/tt4042818
◎豆瓣评分 6.9/10 from 2387 users
◎豆瓣链接 https://movie.douban.com/subject/25982461/
◎片  长 127分钟
◎导  演 泽维尔·多兰 Xavier Dolan
◎编  剧 泽维尔·多兰 Xavier Dolan / 雅各布·提尔尼 Jacob Tierney
◎主  演 基特·哈灵顿 Kit Harington
      雅各布·特伦布莱 Jacob Tremblay
      苏珊·萨兰登 Susan Sarandon
      娜塔莉·波特曼 Natalie Portman
      凯西·贝茨 Kathy Bates
      本·施耐泽 Ben Schnetzer
      埃米丽·汉普希尔 Emily Hampshire
      迈克尔·刚本 Michael Gambon
      坦迪·牛顿 Thandie Newton
      贝拉·索恩 Bella Thorne
      克里斯·泽尔卡 Chris Zylka
      莎拉·加顿 Sarah Gadon
      杰瑞德·基苏 Jared Keeso
      阿里?米伦 Ari Millen
      阿玛拉·卡兰 Amara Karan
      吉斯·布洛姆 Gijs Blom


◎标  签 泽维尔·多兰 | 加拿大 | XavierDolan | 剧情 | 2018 | 美国 | 电影 | JessicaChastain

◎简  介

  故事讲述美国电视明星多诺万(基特·哈灵顿饰)偶然与一位远在英国的年轻人结为笔友。随着二人关系被媒体曝光,多诺万的生活也发生了翻天覆地的变化。
Video
ID : 1
Format : AVC
Format/Info : Advanced Video Codec
Format profile : [email protected]
Format settings : CABAC / 5 Ref Frames
Format settings, CABAC : Yes
Format settings, Reference frames : 5 frames
Codec ID : V_MPEG4/ISO/AVC
Duration : 2 h 3 min
Bit rate : 8 629 kb/s
Width : 1 920 pixels
Height : 808 pixels
Display aspect ratio : 2.40:1
Frame rate mode : Constant
Frame rate : 24.000 FPS
Color space : YUV
Chroma subsampling : 4:2:0
Bit depth : 8 bits
Scan type : Progressive
Bits/(Pixel*Frame) : 0.232
Stream size : 7.44 GiB (85%)
Writing library : x264 core 159 r2991 1771b55
Encoding settings : cabac=1 / ref=5 / deblock=1:-3:-3 / analyse=0x3:0x133 / me=umh / subme=9 / psy=1 / psy_rd=1.00:0.00 / mixed_ref=1 / me_range=16 / chroma_me=1 / trellis=2 / 8x8dct=1 / cqm=0 / deadzone=21,11 / fast_pskip=0 / chroma_qp_offset=-2 / threads=18 / lookahead_threads=1 / sliced_threads=0 / nr=0 / decimate=1 / interlaced=0 / bluray_compat=0 / constrained_intra=0 / bframes=3 / b_pyramid=2 / b_adapt=1 / b_bias=0 / direct=3 / weightb=1 / open_gop=0 / weightp=2 / keyint=240 / keyint_min=24 / scenecut=40 / intra_refresh=0 / rc_lookahead=50 / rc=2pass / mbtree=1 / bitrate=8629 / ratetol=1.0 / qcomp=0.60 / qpmin=0 / qpmax=69 / qpstep=4 / cplxblur=20.0 / qblur=0.5 / ip_ratio=1.40 / aq=1:1.00
Language : English
Default : Yes
Forced : No

Audio
ID : 2
Format : DTS
Format/Info : Digital Theater Systems
Codec ID : A_DTS
Duration : 2 h 3 min
Bit rate mode : Constant
Bit rate : 1 509 kb/s
Channel(s) : 6 channels
Channel layout : C L R Ls Rs LFE
Sampling rate : 48.0 kHz
Frame rate : 93.750 FPS (512 SPF)
Bit depth : 24 bits
Compression mode : Lossy
Stream size : 1.30 GiB (15%)
Language : English
Default : Yes
Forced : No

Text #1
ID : 3
Format : UTF-8
Codec ID : S_TEXT/UTF8
Codec ID/Info : UTF-8 Plain Text
Duration : 14 s 284 ms
Bit rate : 62 b/s
Count of elements : 4
Stream size : 112 Bytes (0%)
Title : English forced
Language : English
Default : Yes
Forced : Yes

Text #2
ID : 4
Format : UTF-8
Codec ID : S_TEXT/UTF8
Codec ID/Info : UTF-8 Plain Text
Duration : 2 h 1 min
Bit rate : 76 b/s
Count of elements : 2045
Stream size : 68.3 KiB (0%)
Title : English
Language : English
Default : No
Forced : No

Text #3
ID : 5
Format : UTF-8
Codec ID : S_TEXT/UTF8
Codec ID/Info : UTF-8 Plain Text
Duration : 2 h 1 min
Bit rate : 82 b/s
Count of elements : 2282
Stream size : 73.3 KiB (0%)
Title : English SDH
Language : English
Default : No
Forced : No

Text #4
ID : 6
Format : UTF-8
Codec ID : S_TEXT/UTF8
Codec ID/Info : UTF-8 Plain Text
Duration : 2 h 2 min
Bit rate : 62 b/s
Count of elements : 1637
Stream size : 55.9 KiB (0%)
Title : French
Language : French
Default : No
Forced : No

Text #5
ID : 7
Format : UTF-8
Codec ID : S_TEXT/UTF8
Codec ID/Info : UTF-8 Plain Text
Duration : 2 h 3 min
Bit rate : 62 b/s
Count of elements : 1859
Stream size : 56.7 KiB (0%)
Title : French SDH
Language : French
Default : No
Forced : No

Menu
00:00:00.000 : en:00:00:00.000
00:12:15.083 : en:00:12:15.083
00:23:21.000 : en:00:23:21.000
00:34:10.292 : en:00:34:10.292
00:46:16.000 : en:00:46:16.000
00:53:17.708 : en:00:53:17.708
01:07:45.167 : en:01:07:45.167
01:16:01.625 : en:01:16:01.625
01:27:38.417 : en:01:27:38.417
01:35:49.833 : en:01:35:49.833
01:42:10.000 : en:01:42:10.000
01:56:54.000 : en:01:56:54.000





1 个附件 售价 大小 下载 时间

The.Death.and.Life.of.John.F.Donovan.2018.1080p.BluRay.x264-USURY.torrent 0 金币 44.84K 469 次 8天前

#1楼
发帖时间:2020-03-26 12:51:39   |   回复数:1
911degrees
隐世仙人♂
非常感谢,谢谢分享
8天前 #2楼
游客组