coor
一代宗师

[更 早] [欧美] [剧情] [WEB-1080P] 回归之路 The.Way.Back.2020.1080p.AMZN.WEBRip.DDP5.1.x264-TEPES 7.50GB

-->

帖子完整标题:回归之路 The.Way.Back.2020.1080p.AMZN.WEBRip.DDP5.1.x264-TEPES 7.50GB




◎译  名 回归之路 / The Has-Been / Torrance / 归来之路 / 归途 / 托兰斯教练
◎片  名 The Way Back
◎年  代 2020
◎产  地 美国
◎类  别 剧情 / 运动
◎语  言 英语
◎上映日期 2020-03-06(美国)
◎IMDb评分 7.1/10 from 2861 users
◎IMDb链接 https://www.imdb.com/title/tt8544498
◎豆瓣评分 6.8/10 from 94 users
◎豆瓣链接 https://movie.douban.com/subject/30345227/
◎片  长 108分钟
◎导  演 加文·欧康诺 Gavin O'Connor
◎编  剧 布拉德·英格尔斯比 Brad Ingelsby / 加文·欧康诺 Gavin O'Connor
◎主  演 本·阿弗莱克 Ben Affleck
      詹妮娜·加万卡 Janina Gavankar
      麦可拉·沃金丝 Michaela Watkins
      瑞秋·卡帕尼 Rachael Carpani
      艾尔·马德里加尔 Al Madrigal
      海耶斯·麦克阿瑟 Hayes MacArthur
      阿夫拉姆·D·于斯特 Da'Vinchi
      泰勒·奥马利 Tyler O'Malley
      马修·格拉夫 Matthew Glave
      托德·斯塔什维克 Todd Stashwick
      玛琳娜·福特 Marlene Forte
      英卡·基特 Inka Kyt?
      格林·特鲁曼 Glynn Turman
      梅尔文·格雷格 Melvin Gregg
      TK·卡特 T.K. Carter
      卢卡斯·盖奇 Lukas Gage
      杰雷米·拉特福德 Jeremy Ratchford
      小索尔·韦雷斯 Sal Velez Jr.
      克里斯·布鲁诺 Chris Bruno
      克里斯汀·霍恩 Christine Horn
      布兰登·威尔逊 Brandon Wilson
      艾德琳·冈野 Edelyn Okano
      尼科·戴维 Nico David
      汤姆·阿齐迪肯 Tom Archdeacon
      杰·阿布多 Jay Abdo
      查德·芒廷 Chad Mountain
      谢伊·朗德特里 Shay Roundtree
      曼尼·斯特里茨 Manny Streetz
      桑蒂尔·亚历克西斯·瓦奎兹 Shantiel Alexis Vazquez
      小阿曼多·杜邦 Armando DuBon Jr.
      丹·格伦伯格 Dan Gruenberg
      布莱恩·纳什 Bryan Nash


◎标  签 美国 | 2020 | 篮球 | 剧情 | 运动 | 华纳 | 酗酒 | 酒瘾

◎简  介

  一个曾经的篮球明星在与酒瘾作斗争时失去了妻子与家庭,为了能够找回自我选择回到母校为一支高中篮球队做教练,同时也要继续防止自己再次被酒瘾控制。
Video
ID : 1
Format : AVC
Format/Info : Advanced Video Codec
Format profile : [email protected]
Format settings : CABAC / 4 Ref Frames
Format settings, CABAC : Yes
Format settings, Reference frames : 4 frames
Codec ID : V_MPEG4/ISO/AVC
Duration : 1 h 48 min
Bit rate mode : Constant
Bit rate : 9 271 kb/s
Nominal bit rate : 10 000 kb/s
Width : 1 920 pixels
Height : 800 pixels
Display aspect ratio : 2.40:1
Frame rate mode : Constant
Frame rate : 23.976 (24000/1001/189150) FPS
Color space : YUV
Chroma subsampling : 4:2:0
Bit depth : 8 bits
Scan type : Progressive
Bits/(Pixel*Frame) : 0.252
Stream size : 7.02 GiB (94%)
Default : Yes
Forced : No
Color range : Limited
Color primaries : BT.709
Transfer characteristics : BT.709
Matrix coefficients : BT.709

Audio
ID : 2
Format : E-AC-3
Format/Info : Enhanced AC-3
Commercial name : Dolby Digital Plus
Codec ID : A_EAC3
Duration : 1 h 48 min
Bit rate mode : Constant
Bit rate : 640 kb/s
Channel(s) : 6 channels
Channel layout : L R C LFE Ls Rs
Sampling rate : 48.0 kHz
Frame rate : 31.250 FPS (1536 SPF)
Compression mode : Lossy
Stream size : 496 MiB (6%)
Language : English
Service kind : Complete Main
Default : Yes
Forced : No

Text #1
ID : 3
Format : UTF-8
Codec ID : S_TEXT/UTF8
Codec ID/Info : UTF-8 Plain Text
Duration : 1 h 39 min
Bit rate : 68 b/s
Count of elements : 1713
Stream size : 50.0 KiB (0%)
Language : English
Default : No
Forced : No

Text #2
ID : 4
Format : UTF-8
Codec ID : S_TEXT/UTF8
Codec ID/Info : UTF-8 Plain Text
Duration : 1 h 40 min
Bit rate : 77 b/s
Count of elements : 1855
Stream size : 57.1 KiB (0%)
Title : SDH
Language : English
Default : No
Forced : No





1 个附件 售价 大小 下载 时间

The.Way.Back.2020.1080p.AMZN.WEBRip.DDP5.1.x264-TEPES.torrent 0 金币 38.07K 581 次 10天前

#1楼
发帖时间:2020-03-24 22:30:24   |   回复数:2
liyouchai
隐世仙人♂
谢谢楼主分享资源
10天前 #2楼
911degrees
隐世仙人♂
非常感谢,谢谢分享
9天前 #3楼
游客组